Национальная Трасса 4 / Udhayam NH4 (Манимаран / M.S. Manimaran) [2013, Индия, Боевик, триллер, DVDRip] Sub Rus

Ответить на тему
 
Автор Сообщение

user ®

Стаж: 12 лет

Сообщений: 15092

Пост Пост: #1 от 27-Окт-2013 22:10

[Цитировать]

Национальная Трасса 4 / Udhayam NH4
Страна: Индия
Жанр: Боевик, триллер
Год выпуска: 2013
Продолжительность: 02:06:35
Перевод: Субтитры
Cубтитры: русские
Оригинальная аудиодорожка: тамильский
Режиссер: Манимаран / M.S. Manimaran
В ролях: Сиддхартх, Кей Кей Менон, Дипак, Асрита Сетти, Авинаш, Нарин, Рамья, Картик Сабеш
Описание: Группа молодых парней похитила дочь крупного партийного деятеля. За дело берется помощник комиссара Манодж Менон (Кей Кей Менон), специалист по захвату преступников. Его задача осложняется тем, что отец юной Ритики (Ашрита Шетти) просит вести поиски неофициально и максимально деликатно. Манодж знает свое дело, и вскоре в его руках оказывается один из сообщников главного похитителя, парня по имени Прабху (Сиддхартх Нараян). Но по мере расследования становится понятно, что политика тут ни при чем, ведь Прабху и его приятели учились вместе с Рити. Так похищена ли девушка или добровольно бежит со своими похитителями? Что ждет их в конце пути? И почему так спешат преследователи? Ответы на все эти вопросы вы найдете, посмотрев эту дорожную сагу.
Доп. информация: Релиз
Перевод, редакция: jyoti (Спасибо!)
Риппер: randy23 (Спасибо!)
Сэмпл: http://multi-up.com/917376
Качество видео: DVDRip
Формат видео: AVI
Видео: XviD build 63, 720x304 (2.37:1), 23.976 fps, 1250 kbps avg
Аудио: Tamil AC3 Dolby Digital, 48 kHz, 3/2 (L,C,R,l,r) + LFE ch, 384.00 kbps avg
Формат субтитров: hardsub (неотключаемые)

MediaInfo

General
Complete name : D:\Nationalnaya.Trassa.4.2013.DVDRip.XviD.BwTorrents.avi
Format : AVI
Format/Info : Audio Video Interleave
File size : 1.45 GiB
Duration : 2h 6mn
Overall bit rate : 1 644 Kbps
Writing application : VirtualDubMod 1.5.10.3 | www.virtualdub-fr.org || (build 2550/release)
Writing library : VirtualDubMod build 2550/release
Video
ID : 0
Format : MPEG-4 Visual
Format profile : AdvancedSimple@L5
Format settings, BVOP : Yes
Format settings, QPel : No
Format settings, GMC : No warppoints
Format settings, Matrix : Default (MPEG)
Codec ID : XVID
Codec ID/Hint : XviD
Duration : 2h 6mn
Bit rate : 1 251 Kbps
Width : 720 pixels
Height : 304 pixels
Display aspect ratio : 2.35
Frame rate : 23.976 fps
Resolution : 24 bits
Colorimetry : 4:2:0
Scan type : Progressive
Bits/(Pixel*Frame) : 0.238
Stream size : 1.11 GiB (76%)
Writing library : XviD 63
Audio
ID : 1
Format : AC-3
Format/Info : Audio Coding 3
Codec ID : 2000
Duration : 2h 6mn
Bit rate mode : Constant
Bit rate : 384 Kbps
Channel(s) : 6 channels
Channel positions : Front: L C R, Surround: L R, LFE
Sampling rate : 48.0 KHz
Stream size : 348 MiB (23%)
Alignment : Split accross interleaves
Interleave, duration : 42 ms (1.00 video frame)
Interleave, preload duration : 500 ms

Скриншот c названием фильма

Скриншоты

Скачать

Скачать торрент! Национальная Трасса 4 / Udhayam NH4 (Манимаран / M.S. Manimaran) [2013, Индия, Боевик, триллер, DVDRip] Sub Rus

Как скачивать? · Что такое торрент? · Рейтинг и ограничения

Сайт не распространяет и не хранит электронные версии произведений, а лишь предоставляет доступ к создаваемому пользователями каталогу ссылок на торрент-файлы, которые содержат только списки хеш-сумм

[Профиль] [ЛС]
Показать сообщения:    
Ответить на тему

Текущее время: Сегодня 14:37

Часовой пояс: GMT + 4



Вы не можете начинать темы
Вы не можете отвечать на сообщения
Вы не можете редактировать свои сообщения
Вы не можете удалять свои сообщения
Вы не можете голосовать в опросах
Вы не можете прикреплять файлы к сообщениям
Вы не можете скачивать файлы