Красный лотос (Заза Буадзе) [2009, Украина, криминальная драма, HDTVRip 720p] Original (Rus)

Ответить на тему
 
Автор Сообщение

user ®

Стаж: 7 лет 7 месяцев

Сообщений: 20008

Пост Пост: #1 от 27-Окт-2013 22:10

[Цитировать]

Красный лотос
Выпущено: Украина, Fresh Production UA
Жанр: криминальная драма
Год выпуска: 2009
Продолжительность: 01:35:56
Перевод: не требуется
Субтитры: нет
Режиссер: Заза Буадзе
В ролях: Михаил Мамаев, Елена Полякова, Наталия Лесниковская, Владимир Капустин, Дмитрий Суржиков, Олег Примогенов, Станислав Боклан, Александр Бондаренко, Ксения Николаева, Георгий Хостикоев, Виталина Библив, Иван Чевьюк, Валерий Легин, Алексей Быш, Вячеслав Рыбченко, Алиция Омельчук, Осип Найдук, Алина Васильева
Описание: Провинциальный город сотрясает страшное известие. Застрелен успешный бизнесмен и медицинское светило, один из самых влиятельных людей в округе. Выводы следствия: это дело рук женщины, имя которой однажды фигурировало в скандальной истории, связанной с убитым.
Смерть местной знаменитости не только переполошила весь город, а и лишила отпуска следователя столичной прокуратуры, приехавшего погостить к другу. Шаг за шагом он приходит к истине: это преступление – лишь верхушка огромного айсберга и разгадка отнюдь не лежит на его поверхности…

Автор рипа / записи: fanatus
Качество видео: HDTVRip 720p
Исходник: Запись с телеканала РОССИЯ HD
Контейнер: MKV
Видео: MPEG-4 AVC, 5019 kbps , 1280x720 (16:9), 25.000 fps, 0.218 bit/pixel
Аудио: русский (AC3, 2 ch, 48 kHz, 192 kbps)

MediaInfo

General
Unique ID : 181690817139293657820551020753706204404 (0x88B060E7A95D1138B8B61B9EC276BCF4)
Complete name : F:\Krasnyj lotos.2009.x264.HDTVRip.720p.fanatus.mkv
Format : Matroska
Format version : Version 2
File size : 3.15 GiB
Duration : 1h 26mn
Overall bit rate : 5 210 Kbps
Movie name : Krasnyj lotos (2009) - fanatus
Encoded date : UTC 2013-10-27 11:20:43
Writing application : mkvmerge v3.4.0 ('Rapunzel') сборка от May 15 2010 09:38:20
Writing library : libebml v0.8.0 + libmatroska v0.9.0
Video
ID : 1
Format : AVC
Format/Info : Advanced Video Codec
Format profile : High@L4.1
Format settings, CABAC : Yes
Format settings, ReFrames : 9 frames
Codec ID : V_MPEG4/ISO/AVC
Duration : 1h 26mn
Bit rate : 5 019 Kbps
Width : 1 280 pixels
Height : 720 pixels
Display aspect ratio : 16:9
Frame rate : 25.000 fps
Color space : YUV
Chroma subsampling : 4:2:0
Bit depth : 8 bits
Scan type : Progressive
Bits/(Pixel*Frame) : 0.218
Stream size : 2.97 GiB (94%)
Title : Krasnyj lotos (2009) HDTVRip 720p
Writing library : x264 core 138 r2358 9e941d1
Encoding settings : cabac=1 / ref=9 / deblock=1:-2:-2 / analyse=0x3:0x113 / me=umh / subme=10 / psy=1 / psy_rd=1.00:0.10 / mixed_ref=1 / me_range=32 / chroma_me=1 / trellis=2 / 8x8dct=1 / cqm=0 / deadzone=21,11 / fast_pskip=0 / chroma_qp_offset=-3 / threads=16 / lookahead_threads=2 / sliced_threads=0 / nr=0 / decimate=0 / interlaced=0 / bluray_compat=0 / constrained_intra=0 / bframes=9 / b_pyramid=2 / b_adapt=2 / b_bias=0 / direct=3 / weightb=1 / open_gop=0 / weightp=2 / keyint=250 / keyint_min=25 / scenecut=40 / intra_refresh=0 / rc=2pass / mbtree=0 / bitrate=5019 / ratetol=1.0 / qcomp=0.65 / qpmin=0 / qpmax=69 / qpstep=4 / cplxblur=20.0 / qblur=0.5 / ip_ratio=1.40 / pb_ratio=1.30 / aq=1:0.90
Language : Russian
Default : Yes
Forced : No
Matrix coefficients : BT.709-5, BT.1361, IEC 61966-2-4 709, SMPTE RP177
Audio
ID : 2
Format : AC-3
Format/Info : Audio Coding 3
Mode extension : CM (complete main)
Format settings, Endianness : Big
Codec ID : A_AC3
Duration : 1h 26mn
Bit rate mode : Constant
Bit rate : 192 Kbps
Channel(s) : 2 channels
Channel positions : Front: L R
Sampling rate : 48.0 KHz
Bit depth : 16 bits
Compression mode : Lossy
Stream size : 119 MiB (4%)
Language : Russian
Default : Yes
Forced : No

Скриншот c названием фильма

Скриншоты

Скачать

Скачать торрент!

Как скачивать? · Что такое торрент? · Рейтинг и ограничения

Сайт не распространяет и не хранит электронные версии произведений, а лишь предоставляет доступ к создаваемому пользователями каталогу ссылок на торрент-файлы, которые содержат только списки хеш-сумм

[Профиль] [ЛС]
Показать сообщения:    
Ответить на тему

Текущее время: Сегодня 12:47

Часовой пояс: GMT + 4



Вы не можете начинать темы
Вы не можете отвечать на сообщения
Вы не можете редактировать свои сообщения
Вы не можете удалять свои сообщения
Вы не можете голосовать в опросах
Вы не можете прикреплять файлы к сообщениям
Вы не можете скачивать файлы