Винни Пух: Рождественский Пух / Winnie the Pooh: A Very Merry Pooh Year (Тед Хеннинг / Ted Henning, Карл Джеерс / Karl Geurs) [2002, мультфильм, семейный, BDRip] DVO (Гланц и Казакова) + Eng

Ответить на тему
 
Автор Сообщение

user ®

Стаж: 12 лет

Сообщений: 15145

Пост Пост: #1 от 27-Окт-2013 19:00

[Цитировать]

Винни Пух: Рождественский Пух / Winnie the Pooh: A Very Merry Pooh Year- Страна: США
Жанр: мультфильм, семейный
Год выпуска: 2002
Продолжительность: 01:03:52
Перевод: Профессиональный (двухголосый закадровый) - П.Гланц и Т.Казакова
Субтитры: Нет-Режиссер: Тед Хеннинг / Ted Henning, Карл Джеерс / Karl Geurs-Описание: В лес пришло Рождество и веселая компания: Тигра, Пух, Ослик, кенгуренок Крошка Ру не могут пропустить такой праздник. И, как всегда, любое мероприятие у этой компании не может пройти без приключений.-Рейтинг:

MPAA: - Нет возрастных ограничений-Мировая премьера: 12 ноября 2002-Релиз: -Качество: BDRip [Winnie.the.Pooh.A.Very.Merry.Pooh.Year.2002.BLUEBIRD]
Формат: AVI
Видео: 704x528 (1.33:1), 23.976 fps, XviD build 65 ~2394 kbps avg, 0.27 bit/pixel
Аудио: 48 kHz, AC3 Dolby Digital, 2/0 (L,R) ch, ~320 kbps - Rus
Аудио 2: 48 kHz, AC3 Dolby Digital, 2/0 (L,R) ch, ~320 kbps - Eng
Субтитры: Отсутствуют

MI

Format : AVIFormat/Info : Audio Video InterleaveFile size : 1.36 GiBDuration : 1h 3mnOverall bit rate : 3 050 KbpsWriting application : VirtualDubMod 1.5.10.3 | www.virtualdub-fr.org || (build 2550/release)Writing library : VirtualDubMod build 2550/release
VideoID : 0Format : MPEG-4 VisualFormat profile : Advanced Simple@L5Format settings, BVOP : 2Format settings, QPel : NoFormat settings, GMC : No warppointsFormat settings, Matrix : CustomCodec ID : XVIDCodec ID/Hint : XviDDuration : 1h 3mnBit rate : 2 396 KbpsWidth : 704 pixelsHeight : 528 pixelsDisplay aspect ratio : 4:3Frame rate : 23.976 fpsColor space : YUVChroma subsampling : 4:2:0Bit depth : 8 bitsScan type : ProgressiveCompression mode : LossyBits/(Pixel*Frame) : 0.269Stream size : 1.07 GiB (79%)Writing library : XviD 65
Audio #1ID : 1Format : AC-3Format/Info : Audio Coding 3Mode extension : CM (complete main)Format settings, Endianness : BigCodec ID : 2000Duration : 1h 3mnBit rate mode : ConstantBit rate : 320 KbpsChannel(s) : 2 channelsChannel positions : Front: L RSampling rate : 48.0 KHzBit depth : 16 bitsCompression mode : LossyStream size : 146 MiB (10%)Alignment : Split accross interleavesInterleave, duration : 42 ms (1.00 video frame)Interleave, preload duration : 500 ms
Audio #2ID : 2Format : AC-3Format/Info : Audio Coding 3Format profile : Dolby DigitalMode extension : CM (complete main)Format settings, Endianness : BigCodec ID : 2000Duration : 1h 3mnBit rate mode : ConstantBit rate : 320 KbpsChannel(s) : 2 channelsChannel positions : Front: L RSampling rate : 48.0 KHzBit depth : 16 bitsCompression mode : LossyStream size : 146 MiB (10%)Alignment : Split accross interleavesInterleave, duration : 42 ms (1.00 video frame)Interleave, preload duration : 500 ms
-
Скачать

Скачать торрент! Винни Пух: Рождественский Пух / Winnie the Pooh: A Very Merry Pooh Year (Тед Хеннинг / Ted Henning, Карл Джеерс / Karl Geurs) [2002, мультфильм, семейный, BDRip] DVO (Гланц и Казакова) + Eng

Как скачивать? · Что такое торрент? · Рейтинг и ограничения

Сайт не распространяет и не хранит электронные версии произведений, а лишь предоставляет доступ к создаваемому пользователями каталогу ссылок на торрент-файлы, которые содержат только списки хеш-сумм

[Профиль] [ЛС]
Показать сообщения:    
Ответить на тему

Текущее время: Сегодня 19:58

Часовой пояс: GMT + 4



Вы не можете начинать темы
Вы не можете отвечать на сообщения
Вы не можете редактировать свои сообщения
Вы не можете удалять свои сообщения
Вы не можете голосовать в опросах
Вы не можете прикреплять файлы к сообщениям
Вы не можете скачивать файлы