Одуванчик (Галина Кувивчак-Сахно) [2011, Россия, Украина, мелодрама, HDTVRip 720p]

Ответить на тему
 
Автор Сообщение

user ®

Стаж: 7 лет 7 месяцев

Сообщений: 20008

Пост Пост: #1 от 27-Окт-2013 19:00

[Цитировать]

Одуванчик
Выпущено: Россия, Украина, Star Media
Жанр: мелодрама
Год выпуска: 2011
Продолжительность: 01:28:09
Субтитры: нет
Режиссер: Галина Кувивчак-Сахно
В ролях: Анна Кузина, Иван Стебунов, Анастасия Цветаева, Александр Мохов, Николай Добрынин, Елена Сафонова, Анатолий Ященко, Лариса Руснак, Ирина Мак, Сергей Деревянко, Андрей Саминин, Леся Самаева, Игорь Рубашкин, Игорь Гнездилов, Диана Довгань, Евгений Сморигин
Описание: Родион и Лара – отпрыски двух самых богатых семей города. Их родители решили и личное счастье собственных детей превратить в выгодный бизнес-проект: они намерены поженить их и слить таким образом семейные капиталы. Но прагматические планы рискуют не сбыться, ведь на это раз в деле не только деньги. Вопрос о свадьбе, казалось бы, решен – полным ходом идет подготовка к празднику. Но накануне торжества Родион застревает в лифте с молодой женщиной, которая помогает ему справиться с приступом клаустрофобии. Соня, невзрачная белокурая девушка-"одуванчик", так, может, и осталась бы мимолетной знакомой, если бы не случайное совпадение – Лара пригласила именно ее на роль аниматора на свадьбу. Вновь встретившись на свадьбе, молодые люди понимают, что жизнь их могла бы сложиться иначе, но чтобы заслужить свое счастье, им придется сделать нелегкий выбор.

Автор рипа / записи: fanatus
Качество видео: HDTVRip 720p
Исходник: Запись с телеканала РОССИЯ HD
Контейнер: MKV
Видео: MPEG-4 AVC, 3222 kbps , 1280x720 (16:9), 25.000 fps, 0.140 bit/pixel
Аудио: AC3, 2 ch, 48 kHz, 192 kbps

MediaInfo

General
Unique ID : 220575794106659781102789726450428592852 (0xA5F15A49BDBD597C826652F0A67EC2D4)
Complete name : F:\Oduvanchik.2011.x264.HDTVRip.720p.fanatus.mkv
Format : Matroska
Format version : Version 2
File size : 2.10 GiB
Duration : 1h 28mn
Overall bit rate : 3 415 Kbps
Movie name : Oduvanchik (2011) - fanatus
Encoded date : UTC 2013-10-27 09:32:40
Writing application : mkvmerge v3.4.0 ('Rapunzel') сборка от May 15 2010 09:38:20
Writing library : libebml v0.8.0 + libmatroska v0.9.0
Video
ID : 1
Format : AVC
Format/Info : Advanced Video Codec
Format profile : High@L4.1
Format settings, CABAC : Yes
Format settings, ReFrames : 9 frames
Codec ID : V_MPEG4/ISO/AVC
Duration : 1h 28mn
Bit rate : 3 222 Kbps
Width : 1 280 pixels
Height : 720 pixels
Display aspect ratio : 16:9
Frame rate : 25.000 fps
Color space : YUV
Chroma subsampling : 4:2:0
Bit depth : 8 bits
Scan type : Progressive
Bits/(Pixel*Frame) : 0.140
Stream size : 1.94 GiB (92%)
Title : Oduvanchik (2011) HDTVRip 720p
Writing library : x264 core 138 r2358 9e941d1
Encoding settings : cabac=1 / ref=9 / deblock=1:-2:-2 / analyse=0x3:0x113 / me=umh / subme=10 / psy=1 / psy_rd=1.00:0.10 / mixed_ref=1 / me_range=32 / chroma_me=1 / trellis=2 / 8x8dct=1 / cqm=0 / deadzone=21,11 / fast_pskip=0 / chroma_qp_offset=-3 / threads=16 / lookahead_threads=2 / sliced_threads=0 / nr=0 / decimate=0 / interlaced=0 / bluray_compat=0 / constrained_intra=0 / bframes=9 / b_pyramid=2 / b_adapt=2 / b_bias=0 / direct=3 / weightb=1 / open_gop=0 / weightp=2 / keyint=250 / keyint_min=25 / scenecut=40 / intra_refresh=0 / rc=2pass / mbtree=0 / bitrate=3222 / ratetol=1.0 / qcomp=0.65 / qpmin=0 / qpmax=69 / qpstep=4 / cplxblur=20.0 / qblur=0.5 / ip_ratio=1.40 / pb_ratio=1.30 / aq=1:0.90
Language : Russian
Default : Yes
Forced : No
Matrix coefficients : BT.709-5, BT.1361, IEC 61966-2-4 709, SMPTE RP177
Audio
ID : 2
Format : AC-3
Format/Info : Audio Coding 3
Mode extension : CM (complete main)
Format settings, Endianness : Big
Codec ID : A_AC3
Duration : 1h 28mn
Bit rate mode : Constant
Bit rate : 192 Kbps
Channel(s) : 2 channels
Channel positions : Front: L R
Sampling rate : 48.0 KHz
Bit depth : 16 bits
Compression mode : Lossy
Stream size : 121 MiB (6%)
Language : Russian
Default : Yes
Forced : No

Скриншот c названием фильма

Скриншоты

Скачать

Скачать торрент!

Как скачивать? · Что такое торрент? · Рейтинг и ограничения

Сайт не распространяет и не хранит электронные версии произведений, а лишь предоставляет доступ к создаваемому пользователями каталогу ссылок на торрент-файлы, которые содержат только списки хеш-сумм

[Профиль] [ЛС]
Показать сообщения:    
Ответить на тему

Текущее время: Сегодня 07:03

Часовой пояс: GMT + 4



Вы не можете начинать темы
Вы не можете отвечать на сообщения
Вы не можете редактировать свои сообщения
Вы не можете удалять свои сообщения
Вы не можете голосовать в опросах
Вы не можете прикреплять файлы к сообщениям
Вы не можете скачивать файлы