Турбо / Turbo (Дэвид Сорен / David Soren) [2013, США, мультфильм, детский, семейный, WEB-DLRip] Dub

Ответить на тему
 
Автор Сообщение

user ®

Стаж: 13 лет

Сообщений: 15041

Пост Пост: #1 от 27-Окт-2013 14:25

[Цитировать]

Турбо / Turbo
Страна: США
Жанр: мультфильм, детский, семейный
Год выпуска: 2013
Продолжительность: 01:36:20
Перевод: Профессиональный (дублированный)
Cубтитры: нет
Оригинальная аудиодорожка: нет-Режиссер: Дэвид Сорен / David Soren-В ролях: Райан Рейнольдс, Пол Джаматти, Майкл Пенья, Луис Гузман, Билл Хейдер, Ричард Дженкинс, Кен Жонг, Мишель Родригез, Майя Рудольф, Бен Шварц-Описание: Ничто так не раздражает темпераментную, мечтающую о скорости улитку с говорящим именем Турбо как неспешная жизнь, медленные разговоры, заторможенные соседи. Пусть наш герой выглядит большим чудаком в этом вялом, неторопливом мире, пусть он идет вопреки закону природы о «рожденном ползать», но если в сердце горит «пламенный мотор», а душа верит в чудо, оно просто не имеет право не произойти!-Качество видео: WEB-DLRip [Turbo.2013.720p.WEB-DL.Rus.Ukr.Eng.HDCLUB]
Формат видео: AVI
Видео: 688x288 (2.39:1), 23.976 fps, XviD build 64 ~945 kbps avg, 0.20 bit/pixel
Аудио: 48 kHz, MPEG Layer 3, 2 ch, ~128.00 kbps avg-Сэмпл: http://sendfile.su/887268-

MediaInfo

Format : AVI
Format/Info : Audio Video Interleave
File size : 746 MiB
Duration : 1h 36mn
Overall bit rate : 1 083 Kbps
Writing application : VirtualDubMod 1.5.10.3 | www.virtualdub-fr.org || (build 2550/release)
Writing library : VirtualDubMod build 2550/release
Video
ID : 0
Format : MPEG-4 Visual
Format profile : Advanced Simple@L5
Format settings, BVOP : 2
Format settings, QPel : No
Format settings, GMC : No warppoints
Format settings, Matrix : Custom
Codec ID : XVID
Codec ID/Hint : XviD
Duration : 1h 36mn
Bit rate : 946 Kbps
Width : 688 pixels
Height : 288 pixels
Display aspect ratio : 2.40:1
Frame rate : 23.976 fps
Color space : YUV
Chroma subsampling : 4:2:0
Bit depth : 8 bits
Scan type : Progressive
Compression mode : Lossy
Bits/(Pixel*Frame) : 0.199
Stream size : 652 MiB (87%)
Writing library : XviD 64
Audio
ID : 1
Format : MPEG Audio
Format version : Version 1
Format profile : Layer 3
Codec ID : 55
Codec ID/Hint : MP3
Duration : 1h 36mn
Bit rate mode : Constant
Bit rate : 128 Kbps
Channel(s) : 2 channels
Sampling rate : 48.0 KHz
Compression mode : Lossy
Stream size : 88.2 MiB (12%)
Alignment : Aligned on interleaves
Interleave, duration : 42 ms (1.00 video frame)
Interleave, preload duration : 504 ms
Writing library : LAME3.99.1

Скриншоты

Скачать

Скачать торрент! Турбо / Turbo (Дэвид Сорен / David Soren) [2013, США, мультфильм, детский, семейный, WEB-DLRip] Dub

Как скачивать? · Что такое торрент? · Рейтинг и ограничения

Сайт не распространяет и не хранит электронные версии произведений, а лишь предоставляет доступ к создаваемому пользователями каталогу ссылок на торрент-файлы, которые содержат только списки хеш-сумм

[Профиль] [ЛС]
Показать сообщения:    
Ответить на тему

Текущее время: Сегодня 00:32

Часовой пояс: GMT + 4



Вы не можете начинать темы
Вы не можете отвечать на сообщения
Вы не можете редактировать свои сообщения
Вы не можете удалять свои сообщения
Вы не можете голосовать в опросах
Вы не можете прикреплять файлы к сообщениям
Вы не можете скачивать файлы