Адский бункер: Восстание спецназа / Outpost: Rise of the Spetsnaz (Киран Паркер / Kieran Parker) [2013, Великобритания, ужасы, боевик, DVDRip, Любительский (одноголосый)[den904]

Ответить на тему
 
Автор Сообщение

LORN-V ®

Пол:

Стаж: 4 года 6 месяцев

Сообщений: 1186

Откуда: Munchen

Пост Пост: #1 от 27-Окт-2013 13:18

[Цитировать]

Адский бункер: Восстание спецназа / Outpost: Rise of the Spetsnaz -Основная информация:-Год выпуска:2013
Страна:Великобритания
Жанр:ужасы, боевик
Продолжительность: 01:23:30
Перевод:Любительский (одноголосый)[den904]
Субтитры: Нет
Режиссер:Киран Паркер / Kieran Parker-В ролях:Брайан Ларкин (Dolokhov), Иван Камарас (Fyodor), Майкл МакКелл (Strasser), Велибор Топик (Arkadi), Лоуренс Посса (Osakin), Бен Ламберт (Rogers), Алек Утгофф (Kostya), Винс Дочерти (Klotz), Гарет Моррисон (Potrovsky), Лео Хорсфилд (The Surgeon), Вивьен Тейлор (The Nurse), Джэми Кэмпбелл (2nd Guard)-Описание:-После нападения на колонну немецких солдат в руки спецгруппы Красной Армии попадают секретные документы, в которых содержится информация о месте расположения тайной нацистской лаборатории. Командир Долохов принимает решение найти и ликвидировать лабораторию, но внезапное нападение обрекает его на плен и сущий ад в подземельях таинственного бункера.- -Доп. информация:-Качество:DVDRip
Формат:AVI
Видео кодек: XviD
Аудио кодек:AC3
Видео: XviD, 720x304 (2.35:1), 1949 kbps, 25 fps, 0,356 bpp
Аудио №1: AC3 / 2.0 / 48 kHz / 192 kbps / 16 bit-Russian
Аудио №2: AC3 / 2.0 / 48 kHz / 192 kbps / 16 bit / English

MI

General
Complete name : D:ТорентыAdskij.bunker.3.DVDRip.L1.1400Mb.avi
Format : AVI
Format/Info : Audio Video Interleave
File size : 1.37 GiB
Duration : 1h 23mn
Overall bit rate : 2 348 Kbps
Writing application : VirtualDubMod 1.5.10.3 | www.virtualdub-fr.org || (build 2550/release)
Writing library : VirtualDubMod build 2550/release
Video
ID : 0
Format : MPEG-4 Visual
Format profile : Advanced Simple@L5
Format settings, BVOP : 1
Format settings, QPel : No
Format settings, GMC : No warppoints
Format settings, Matrix : Custom
Codec ID : XVID
Codec ID/Hint : XviD
Duration : 1h 23mn
Bit rate : 1 949 Kbps
Width : 720 pixels
Height : 304 pixels
Display aspect ratio : 2.35:1
Frame rate : 25.000 fps
Color space : YUV
Chroma subsampling : 4:2:0
Bit depth : 8 bits
Scan type : Progressive
Compression mode : Lossy
Bits/(Pixel*Frame) : 0.356
Stream size : 1.14 GiB (83%)
Writing library : XviD 1.2.1 (UTC 2008-12-04)
Audio #1
ID : 1
Format : AC-3
Format/Info : Audio Coding 3
Mode extension : CM (complete main)
Codec ID : 2000
Duration : 1h 23mn
Bit rate mode : Constant
Bit rate : 192 Kbps
Channel(s) : 2 channels
Channel positions : Front: L R
Sampling rate : 48.0 KHz
Bit depth : 16 bits
Compression mode : Lossy
Stream size : 115 MiB (8%)
Alignment : Split accross interleaves
Interleave, duration : 40 ms (1.00 video frame)
Interleave, preload duration : 500 ms
Audio #2
ID : 2
Format : AC-3
Format/Info : Audio Coding 3
Mode extension : CM (complete main)
Codec ID : 2000
Duration : 1h 23mn
Bit rate mode : Constant
Bit rate : 192 Kbps
Channel(s) : 2 channels
Channel positions : Front: L R
Sampling rate : 48.0 KHz
Bit depth : 16 bits
Compression mode : Lossy
Stream size : 115 MiB (8%)
Alignment : Split accross interleaves
Interleave, duration : 40 ms (1.00 video frame)
Interleave, preload duration : 500 ms

Скриншоты

Скачать

Скачать торрент!

Как скачивать? · Что такое торрент? · Рейтинг и ограничения

Сайт не распространяет и не хранит электронные версии произведений, а лишь предоставляет доступ к создаваемому пользователями каталогу ссылок на торрент-файлы, которые содержат только списки хеш-сумм


_________________
[Профиль] [ЛС]
Показать сообщения:    
Ответить на тему

Текущее время: Сегодня 20:23

Часовой пояс: GMT + 4



Вы не можете начинать темы
Вы не можете отвечать на сообщения
Вы не можете редактировать свои сообщения
Вы не можете удалять свои сообщения
Вы не можете голосовать в опросах
Вы не можете прикреплять файлы к сообщениям
Вы не можете скачивать файлы