Нищая (Яков Протазанов) [1916, драма, TVRip]

Ответить на тему
 
Автор Сообщение

user ®

Стаж: 7 лет 7 месяцев

Сообщений: 20008

Пост Пост: #1 от 27-Окт-2013 11:15

[Цитировать]

Нищая
Жанр: драма
Год выпуска: 1916
Продолжительность: 0:41:23
Режиссёр: Яков Протазанов
В ролях: Наталья Лисенко, Иван Мозжухин
Описание: Известная актриса тяжело заболевает оспой. После долгой и тяжёлой болезни она превращается в изуродованную старуху. Разорённая, отвергнутая поклонниками, она вынуждена просить милостыню.
Качество видео: TVRip
Формат видео: AVI
Видео: 292x240 (1.22:1), 15 fps, Microsoft MPEG-4 Video Codec V2 ~688 kbps avg, 0.66 bit/pixel
Аудио: 44.100 kHz, MPEG Layer 3, 2 ch, ~64.00 kbps avg

MediaInfo

General
Complete name : C:\videooutput\Нищая (Подайте Христа ради ей). 1916 год..avi
Format : AVI
Format/Info : Audio Video Interleave
File size : 226 MiB
Duration : 41mn 23s
Overall bit rate : 764 Kbps
Writing application : Lavf52.31.0
Video
ID : 0
Format : MPEG-4 Visual
Codec ID : MP42
Codec ID/Info : Microsoft MPEG-4 v2 (pre-standard)
Codec ID/Hint : Microsoft
Duration : 41mn 23s
Bit rate : 690 Kbps
Width : 292 pixels
Height : 240 pixels
Display aspect ratio : 1.217
Frame rate : 15.000 fps
Compression mode : Lossy
Bits/(Pixel*Frame) : 0.656
Stream size : 204 MiB (90%)
Audio
ID : 1
Format : MPEG Audio
Format version : Version 1
Format profile : Layer 3
Mode : Joint stereo
Mode extension : MS Stereo
Codec ID : 55
Codec ID/Hint : MP3
Duration : 41mn 17s
Bit rate mode : Constant
Bit rate : 64.0 Kbps
Channel(s) : 2 channels
Sampling rate : 44.1 KHz
Compression mode : Lossy
Stream size : 18.9 MiB (8%)
Alignment : Aligned on interleaves
Interleave, duration : 26 ms (0.39 video frame)

Скриншоты

Скачать

Скачать торрент!

Как скачивать? · Что такое торрент? · Рейтинг и ограничения

Сайт не распространяет и не хранит электронные версии произведений, а лишь предоставляет доступ к создаваемому пользователями каталогу ссылок на торрент-файлы, которые содержат только списки хеш-сумм

[Профиль] [ЛС]
Показать сообщения:    
Ответить на тему

Текущее время: Сегодня 23:41

Часовой пояс: GMT + 4



Вы не можете начинать темы
Вы не можете отвечать на сообщения
Вы не можете редактировать свои сообщения
Вы не можете удалять свои сообщения
Вы не можете голосовать в опросах
Вы не можете прикреплять файлы к сообщениям
Вы не можете скачивать файлы