Мешок (Артур Виденмеер) [2008 г., драма, короткометражный, HDRip]

Ответить на тему
 
Автор Сообщение

user ®

Стаж: 7 лет 7 месяцев

Сообщений: 20008

Пост Пост: #1 от 27-Окт-2013 11:15

[Цитировать]

МешокГод выпуска: 2008.
Жанр: драма, короткометражный.
Продолжительность: 00:12:42.
Режиссер: Артур Виденмеер.
В ролях:
Андрей Филиппак, Алексей Зеленский, Петр Солдатов.
Описание:
Фильм рассказывает об изломанных человеческих судьбах во времена гражданской войны в России. Он повествует о нравственном выборе человека в страшное военное время…
Доп. информация:
Страна: Россия .
Автор сценария: Сергей Муратов.
Оператор: Юрий Кокошкин.
Художник: Евгений Савин.
В фильме использована русская народная песня "Дороженька".
Награды и номинации:
• Гран-При "Golden Frame" Международного кинофестиваля "YOUNG CINEMA ART" г.Варшава (Польша) 2008г.
• Гран-При "VI Международного кинофестиваля ВОЕННОГО КИНО им.Ю.Н.Озерова" г.Москва 2008г.
• Гран-При, статуэтка "Золотая богиня" кинофестиваля "ЗОЛОТОЙ БУБЕН" г.Ханты-Мансийск 2008г.
• "Audience Award" VIII Международного кинофестиваля "ICFVF" г.Пекин (Китай) 2009г.
• Специальный Приз жюри Международного кинофестиваля "MEDIASCHOOL" г.Лодзь (Польша) 2008г.
• Специальный Приз Международного кинофестиваля "СВЯТАЯ АННА" г.Москва 2008.
• Специальный Приз Международного кинофестиваля "КИНОПРОБА" г.Екатеринбург 2007г.
• Приз "За лучший сценарий" Международного кинофестиваля "НАЧАЛО" г.Санкт-Петербург 2008г.
• Специальный гость Международного кинофестиваля "BLIFF" г.Баня Лука (Босния) 2008г.
• Специальный гость Международного кинофестиваля "НА ВОЛЖСКОМ РУБЕЖЕ" г.Чебоксары 2008г.
• Специальный гость Кинофестиваля "A-Film Festival" г.Москва 2008г.

Релиз
Рип sharky.

Качество: HDRip
Формат: AVI
Видео: 720x304 (2.37:1), 25 fps, XviD build 50 ~1819 kbps avg, 0.33 bit/pixel
Аудио: 48 kHz, AC3 Dolby Digital, 2/0 (L,R) ch, ~192 kbps

Отчет MediaInfo

Общее
Полное имя : Meshok.2008.XviD.HDRip.fenixclub.avi
Format : AVI
Format/Info : Audio Video Interleave
File size : 184 MiB
Duration : 12mn 41s
Overall bit rate : 2 022 Kbps
Writing application : VirtualDubMod 1.5.10.3 | www.virtualdub-fr.org || (build 2550/release)
Writing library : VirtualDubMod build 2550/release
Video
ID : 0
Format : MPEG-4 Visual
Format profile : Advanced Simple@L5
Format settings, BVOP : 2
Format settings, QPel : No
Format settings, GMC : No warppoints
Format settings, Matrix : Default (H.263)
Muxing mode : Packed bitstream
Codec ID : XVID
Codec ID/Hint : XviD
Duration : 12mn 41s
Bit rate : 1 820 Kbps
Width : 720 pixels
Height : 304 pixels
Display aspect ratio : 2.35:1
Frame rate : 25.000 fps
Color space : YUV
Chroma subsampling : 4:2:0
Bit depth : 8 bits
Scan type : Progressive
Compression mode : Lossy
Bits/(Pixel*Frame) : 0.333
Stream size : 165 MiB (90%)
Writing library : XviD 1.2.1 (UTC 2008-12-04)
Audio
ID : 1
Format : AC-3
Format/Info : Audio Coding 3
Mode extension : CM (complete main)
Format settings, Endianness : Big
Codec ID : 2000
Duration : 12mn 41s
Bit rate mode : Constant
Bit rate : 192 Kbps
Channel(s) : 2 channels
Channel positions : Front: L R
Sampling rate : 48.0 KHz
Bit depth : 16 bits
Compression mode : Lossy
Stream size : 17.4 MiB (9%)
Alignment : Split accross interleaves
Interleave, duration : 40 ms (1.00 video frame)
Interleave, preload duration : 500 ms

Скриншоты


Альтернативный хост


Скачать

Скачать торрент!

Как скачивать? · Что такое торрент? · Рейтинг и ограничения

Сайт не распространяет и не хранит электронные версии произведений, а лишь предоставляет доступ к создаваемому пользователями каталогу ссылок на торрент-файлы, которые содержат только списки хеш-сумм

[Профиль] [ЛС]
Показать сообщения:    
Ответить на тему

Текущее время: Сегодня 07:03

Часовой пояс: GMT + 4



Вы не можете начинать темы
Вы не можете отвечать на сообщения
Вы не можете редактировать свои сообщения
Вы не можете удалять свои сообщения
Вы не можете голосовать в опросах
Вы не можете прикреплять файлы к сообщениям
Вы не можете скачивать файлы