Королевство викингов / Vikingdom (Исри Крю / Yusry Abd Halim) [2013, США, Малайзия, приключения, фэнтези, боевик, WEB-DLRip, Профессиональный (многоголосый, закадровый)[BaibaKo]

Ответить на тему
 
Автор Сообщение

LORN-V ®

Пол:

Стаж: 4 года 6 месяцев

Сообщений: 1186

Откуда: Munchen

Пост Пост: #1 от 26-Окт-2013 22:20

[Цитировать]

Королевство викингов / Vikingdom-«Он хотел владеть миром» -Основная информация:-Год выпуска: 2013
Страна: США, Малайзия
Жанр: приключения, фэнтези, боевик
Продолжительность: 01:54:26
Перевод: Профессиональный (многоголосый, закадровый)[BaibaKo]
Режиссер: Исри Крю / Yusry Abd Halim
Бюджет:$15 600 000
Мировая премьера:12 сентября 2013-В ролях: Доминик Пёрселл (Eirick), Наташа Мальте (Brynna), Крэйг Фэйрбрасс (Sven), Джон Фу (Yang), Конан Стивенс (Thor), Джесси Мосс (Frey), Теган Мосс (Freyja), Патрик Мюррэй (Alcuin), Байрон Гибсон (Captain of Jomsberg 5), Тревор Коппола (Geat), Брюс Блэйн (Bernard), Антео Квинтавалле (Trondelag Captain)-Описание:-Воин, пытающийся забыть жестокость своего прошлого, вынужден вновь взять в руки меч, чтобы сразиться с невообразимой силы божеством.- -Доп. информация:-Качество: WEB-DLRip
Формат: AVI
Видео кодек: XviD
Аудио кодек: AC3
Видео: XviD, 720x384 (1.875), 1428 kbps, 23,976 fps, 0,215 bpp
Аудио: AC3 / 5.1 / 48 kHz / 384 kbps / 16 bit

MI

Общее
Полное имя                               : D:\Torrent_DviX\Korolevstvo.vikingov.2013.P.WEBDLRip.1400MB.avi
Формат                                   : AVI
Формат/Информация                        : Audio Video Interleave
Размер файла                             : 1,46 Гбайт
Продолжительность                        : 1 ч. 54 м.
Общий поток                              : 1822 Кбит/сек
Программа кодирования                    : VirtualDubMod 1.5.10.2 (build 2540/release)
Библиотека кодирования                   : VirtualDubMod build 2540/release
Видео
Идентификатор                            : 0
Формат                                   : MPEG-4 Visual
Профиль формата                          : Advanced Simple@L5
Параметр BVOP формата                    : 2
Параметр QPel формата                    : Нет
Параметр GMC формата                     : Без точки перехода
Параметр матрицы формата                 : Выборочная
Идентификатор кодека                     : XVID
Идентификатор кодека/Подсказка           : XviD
Продолжительность                        : 1 ч. 54 м.
Битрейт                                  : 1428 Кбит/сек
Ширина                                   : 720 пикселей
Высота                                   : 384 пикселя
Соотношение сторон                       : 1,85:1
Частота кадров                           : 23,976 кадра/сек
Цветовое пространство                    : YUV
Субдискретизация насыщенности            : 4:2:0
Битовая глубина                          : 8 бит
Тип развёртки                            : Прогрессивная
Метод сжатия                             : С потерями
Бит/(Пиксели*Кадры)                      : 0.215
Размер потока                            : 1,14 Гбайт (78%)
Библиотека кодирования                   : XviD 1.2.1 (UTC 2008-12-04)
Аудио
Идентификатор                            : 1
Формат                                   : AC-3
Формат/Информация                        : Audio Coding 3
Расширение режима                        : CM (complete main)
Параметр Endianness формата              : Big
Идентификатор кодека                     : 2000
Продолжительность                        : 1 ч. 54 м.
Вид битрейта                             : Постоянный
Битрейт                                  : 384 Кбит/сек
Каналы                                   : 6 каналов
Расположение каналов                     : Front: L C R, Side: L R, LFE
Частота                                  : 48,0 КГц
Битовая глубина                          : 16 бит
Метод сжатия                             : С потерями
Размер потока                            : 314 Мбайт (21%)
Выравнивание                             : Разделение по промежуткам
Продолжительность промежутка             : 42  мс. (1,00 видеокадр)
Время предзагрузки промежутка            : 500  мс.

Скриншоты

Скачать

Скачать торрент!

Как скачивать? · Что такое торрент? · Рейтинг и ограничения

Сайт не распространяет и не хранит электронные версии произведений, а лишь предоставляет доступ к создаваемому пользователями каталогу ссылок на торрент-файлы, которые содержат только списки хеш-сумм


_________________
[Профиль] [ЛС]
Показать сообщения:    
Ответить на тему

Текущее время: Сегодня 13:51

Часовой пояс: GMT + 4



Вы не можете начинать темы
Вы не можете отвечать на сообщения
Вы не можете редактировать свои сообщения
Вы не можете удалять свои сообщения
Вы не можете голосовать в опросах
Вы не можете прикреплять файлы к сообщениям
Вы не можете скачивать файлы