Неблагодарный / Предатель / Namak Haraam (Хришикеш Мукерджи / Hrishikesh Mukherjee) [1973, Индия, Драма, DVDRip] VO + original + Sub Rus

Ответить на тему
 
Автор Сообщение

user ®

Стаж: 12 лет

Сообщений: 15092

Пост Пост: #1 от 26-Окт-2013 20:55

[Цитировать]

Неблагодарный (Предатель) / Namak Haraam
Страна: Индия
Жанр: Драма
Год выпуска: 1973
Продолжительность: 02:24:04
Перевод: Одноголосый закадровый (Nastia)
Перевод субтитров: Марины Х. (Марик)
Cубтитры: Русские (вшитый - на песни)
Оригинальная аудиодорожка: Хинди
Режиссер: Хришикеш Мукерджи / Hrishikesh Mukherjee
В ролях: Раджеш Кхана, Амитабх Баччан, Сими Гаревал, Рекха, Асрани, А.К. Хангал, Ом Шивпури, Манмохан, Дурга Кхоте, Раза Мурад, Джайшри Т., Йогеш Чхабра, Даршан, Нилам, Лалита Кумари, Хабиба Рехман, Камалдип, Маниша, Манджи Асрани
Описание: Сому — парень из обычной семьи среднего достатка, а Вики — сын очень богатого промышленника. Дружбе, надо отдать должное, это ничуть не мешает. Однажды, богатый папа приболел и пришлось Вики впрячься в работу и взять на себя руководство фамильным производством. Как и положено на каждой фабрике (заводе), на местной тоже был предводитель рабочего движения за их, собственно говоря, рабочие права. Очень он нашему Вики не понравился и очень его огорчил. Возлюбленный друг Сому вызвался помочь незадачливому бизнесмену, внедрился в среду пролетариата и с легкостью отобрал власть у старого лидера. Но не долго товарищи отмечали радость победы, т. к. Сому настолько вжился в роль и проникся интересами трудового народа, что стал от их имени качать права уже «неподецки». Наивный Вики никак не мог взять в толк, что случилось с его любезным другом, а вот его прожженный в коммерческих боях папа, быстро смекнул, какая проблема выросла за время его отсутствия..
Доп. информация: За исполнение этой роли Амитабх Баччан был удостоин награды Filmfare - как лучший актёр 2-го плана
Блогодарность:
Марик за перевод субтитров и за предоставленный DVDRip
larisa_k за предоставленные материалы для релиза
Nastia за озвучку фильма
Cведение звука: pca1962
Сэмпл: http://multi-up.com/916981

Качество видео: DVDRip
Формат видео: AVI
Видео: XviD, 600x448, 25.00 fps, 1532 kbps
Аудио: AC3, 48 kHz, 2.0 (stereo), 224 kbps (русский)
Аудио 2: MP3, 44.1 kHz, 2.0 (stereo), 224 kbps (хинди)

MediaInfo

=== Общие ===
Полное имя : Predatel.1973.DVDRip.XviD.pca1962.avi
Формат : AVI
Описание формата : Audio Video Interleave
Профиль формата : OpenDML
Размер файла : 2.01 Гб
Длительность : 2ч 24мин
Общий битрейт : 1 999 кбит/сек
Програмное обеспечение : VirtualDubModRus 1.5.10.2 (build 2542/release)
Кодирующая библиотека : VirtualDubMod build 2542/release
=== Видео ===
ID (Идентификатор) : 0
Формат : MPEG-4 Visual
Профиль формата : Advanced Simple@L5
Параметр 'BVOP' : 2
Параметр 'QPel' : Нет
Параметр 'GMC' : No warppoints
Параметр 'Matrix' : Default (H.263)
Идентификатор кодека : XVID
Подпись кодека : XviD
Длительность : 2ч 24мин
Битрейт : 1 532 кбит/сек
Ширина кадра : 600 пикселей
Высота кадра : 448 пикселей
Соотношение сторон : 4:3
Частота кадров : 25.000 кадров/сек
Цветовое пространство : YUV
Субдискретизация насыщенности : 4:2:0
Глубина (разрядность) : 8 bits
Тип развертки : Прогрессивная
Режим сжатия : С потерями
Бит/(пиксель*кадр) : 0.228
Размер потока : 1.54 Гб (77%)
Кодирующая библиотека : XviD 1.2.1 (UTC 2008-12-04)
=== Аудио 1 ===
ID (Идентификатор) : 1
Формат : AC-3
Описание формата : Audio Coding 3
Mode extension : CM (complete main)
Идентификатор кодека : 2000
Длительность : 2ч 24мин
Тип битрейта : Постоянный
Битрейт : 224 кбит/сек
Канал(ы) : 2 каналов
Расположение каналов : Front: L R
Частота дискретизации : 48.0 кГц
Глубина (разрядность) : 16 bits
Режим сжатия : С потерями
Размер потока : 231 Мб (11%)
Расположение потока : Split accross interleaves
Период чередования : 40 мс (1.00 video frame)
Предварительная загрузка : 500 мс
=== Аудио 2 ===
ID (Идентификатор) : 2
Формат : MPEG Audio
Версия формата : Version 1
Профиль формата : Layer 3
Режим : Joint stereo
Идентификатор кодека : 55
Подпись кодека : MP3
Длительность : 2ч 24мин
Тип битрейта : Постоянный
Битрейт : 224 кбит/сек
Канал(ы) : 2 каналов
Частота дискретизации : 44.1 кГц
Режим сжатия : С потерями
Размер потока : 231 Мб (11%)
Расположение потока : Split accross interleaves
Период чередования : 40 мс (1.00 video frame)
Предварительная загрузка : 500 мс
Кодирующая библиотека : LAME3.98.2

Скриншот c названием фильма

Скачать

Скачать торрент! Неблагодарный / Предатель / Namak Haraam (Хришикеш Мукерджи / Hrishikesh Mukherjee) [1973, Индия, Драма, DVDRip] VO + original + Sub Rus

Как скачивать? · Что такое торрент? · Рейтинг и ограничения

Сайт не распространяет и не хранит электронные версии произведений, а лишь предоставляет доступ к создаваемому пользователями каталогу ссылок на торрент-файлы, которые содержат только списки хеш-сумм

[Профиль] [ЛС]
Показать сообщения:    
Ответить на тему

Текущее время: Сегодня 11:44

Часовой пояс: GMT + 4



Вы не можете начинать темы
Вы не можете отвечать на сообщения
Вы не можете редактировать свои сообщения
Вы не можете удалять свои сообщения
Вы не можете голосовать в опросах
Вы не можете прикреплять файлы к сообщениям
Вы не можете скачивать файлы