Похищенные / Abducted / Griffith Park 8 (Люси Филлипс / Lucy Phillips, Глен Скэнтлебери / Glen Scantlebury) [2013, США, фантастика, триллер, Web-DL 720p] DVO (den904, DeadSno) + Original (Eng) + Sub (Eng)

Ответить на тему
 
Автор Сообщение

user ®

Стаж: 7 лет 7 месяцев

Сообщений: 20008

Пост Пост: #1 от 26-Окт-2013 20:55

[Цитировать]

Похищенные / Abducted / Griffith Park 8 Страна: США
Жанр: фантастика, триллер
Год выпуска: 2013
Продолжительность: 01:25:27
Перевод: Любительский (двухголосый закадровый) den904, DeadSno // Перевод: А. Кедров aka 'antoniolagrande'
Cубтитры: английские (SDH)
Оригинальная аудиодорожка: английский
Режиссер: Люси Филлипс / Lucy Phillips, Глен Скэнтлебери / Glen Scantlebury
В ролях: Джо Бон, Виван Дюгре, Тесса Феррер, Эмили Грэхэм-Хэндли, Даг Хейли, Джелли Хоуи, Тревор Морган, Санг Мин Парк, Росс Томас, May Turnure
Описание:
Джессика и Дейв, одна из трех молодых пар, похищенных в парке Гриффит. Находясь в неизвестном помещении, где таинственные похитители воздействуют на их тело и разум, они пытаются избежать верной смерти, но, постепенно, приходят к пониманию, что мир уже никогда не будет таким, как прежде ...
- || || || -Тип релиза: Web-DL 720p

Контейнер: MKV
Видео: AVC (x264), 1280x720 (16:9) at 23,976 fps, 3998 Кbps, 0.180 bpp
Аудио 1: AC3; 384 Kbps; CBR; 6 ch; 48 khz | DVO - den904, DeadSno |
Аудио 2: AC3; 384 Kbps; CBR; 6 ch; 48 khz | Английский |
Формат субтитров: softsub (SRT)

Скриншоты || x264 Info || MediaInfo || Notes

MediaInfo

Общее
Уникальный идентификатор                 : 216347248134022191148912387662431133371 (0xA2C2F6E014CE5985B61F8D85D9D81EBB)
Полное имя                               : Похищенные.2013.DVO.720p.WEB-DL.x264-HD4FUN.mkv
Формат                                   : Matroska
Версия формата                           : Version 4 / Version 2
Размер файла                             : 3,24 Гбайт
Продолжительность                        : 1 ч. 35 м.
Общий поток                              : 4853 Кбит/сек
Название фильма                          : profile.php?mode=viewprofile&u=22488948
Дата кодирования                         : UTC 2013-10-26 09:10:18
Программа кодирования                    : mkvmerge v6.5.0 ('Isn't she lovely') built on Oct 20 2013 12:50:05
Библиотека кодирования                   : libebml v1.3.0 + libmatroska v1.4.1
Видео
Идентификатор                            : 1
Формат                                   : AVC
Формат/Информация                        : Advanced Video Codec
Профиль формата                          : High@L3.1
Параметр CABAC формата                   : Нет
Параметр ReFrames формата                : 2 кадра
Идентификатор кодека                     : V_MPEG4/ISO/AVC
Продолжительность                        : 1 ч. 35 м.
Битрейт                                  : 3988 Кбит/сек
Ширина                                   : 1280 пикселей
Высота                                   : 720 пикселей
Соотношение сторон                       : 16:9
Режим частоты кадров                     : Постоянный
Частота кадров                           : 23,976 кадра/сек
Цветовое пространство                    : YUV
Субдискретизация насыщенности            : 4:2:0
Битовая глубина                          : 8 бит
Тип развёртки                            : Прогрессивная
Бит/(Пиксели*Кадры)                      : 0.180
Размер потока                            : 2,66 Гбайт (82%)
Язык                                     : English
Default                                  : Да
Forced                                   : Нет
Основные цвета                           : BT.709
Характеристики трансфера                 : BT.709
Коэффициенты матрицы                     : BT.709
Аудио #1
Идентификатор                            : 2
Формат                                   : AC-3
Формат/Информация                        : Audio Coding 3
Расширение режима                        : CM (complete main)
Параметр Endianness формата              : Big
Идентификатор кодека                     : A_AC3
Продолжительность                        : 1 ч. 35 м.
Вид битрейта                             : Постоянный
Битрейт                                  : 384 Кбит/сек
Каналы                                   : 6 каналов
Расположение каналов                     : Front: L C R, Side: L R, LFE
Частота                                  : 48,0 КГц
Битовая глубина                          : 16 бит
Метод сжатия                             : С потерями
Размер потока                            : 262 Мбайт (8%)
Заголовок                                : DVO [den904, DeadSno]
Язык                                     : Russian
Default                                  : Да
Forced                                   : Нет
Аудио #2
Идентификатор                            : 3
Формат                                   : AC-3
Формат/Информация                        : Audio Coding 3
Расширение режима                        : CM (complete main)
Параметр Endianness формата              : Big
Идентификатор кодека                     : A_AC3
Продолжительность                        : 1 ч. 35 м.
Вид битрейта                             : Постоянный
Битрейт                                  : 384 Кбит/сек
Каналы                                   : 6 каналов
Расположение каналов                     : Front: L C R, Side: L R, LFE
Частота                                  : 48,0 КГц
Битовая глубина                          : 16 бит
Метод сжатия                             : С потерями
Размер потока                            : 262 Мбайт (8%)
Язык                                     : English
Default                                  : Нет
Forced                                   : Нет
Текст
Идентификатор                            : 4
Формат                                   : UTF-8
Идентификатор кодека                     : S_TEXT/UTF8
Идентификатор кодека/Информация          : UTF-8 Plain Text
Заголовок                                : SDH
Язык                                     : English
Default                                  : Нет
Forced                                   : Нет
Меню
00:00:00.000                             : en:Chapter 1
00:08:59.000                             : en:Chapter 2
00:20:54.000                             : en:Chapter 3
00:29:23.000                             : en:Chapter 4
00:38:43.000                             : en:Chapter 5
00:49:24.000                             : en:Chapter 6
00:59:24.000                             : en:Chapter 7
01:13:02.000                             : en:Chapter 8
01:21:11.000                             : en:Chapter 9
01:31:32.000                             : en:Chapter 10
- -
Скачать

Скачать торрент!

Как скачивать? · Что такое торрент? · Рейтинг и ограничения

Сайт не распространяет и не хранит электронные версии произведений, а лишь предоставляет доступ к создаваемому пользователями каталогу ссылок на торрент-файлы, которые содержат только списки хеш-сумм

[Профиль] [ЛС]
Показать сообщения:    
Ответить на тему

Текущее время: Сегодня 23:39

Часовой пояс: GMT + 4



Вы не можете начинать темы
Вы не можете отвечать на сообщения
Вы не можете редактировать свои сообщения
Вы не можете удалять свои сообщения
Вы не можете голосовать в опросах
Вы не можете прикреплять файлы к сообщениям
Вы не можете скачивать файлы