Возвращение реаниматора / Реаниматор 3 / Beyond Re-Animator (Брайан Юзна / Brian Yuzna) [2003, Испания, ужасы, фантастика, комедия, WEB-DL 720p] MVO + VO (Сафронов) + original (eng) + sub (rus, eng)

Ответить на тему
 
Автор Сообщение

user ®

Стаж: 7 лет 7 месяцев

Сообщений: 20008

Пост Пост: #1 от 26-Окт-2013 20:55

[Цитировать]

Возвращение реаниматора / Реаниматор 3 / Beyond Re-Animator
Год выпуска: 2003
Страна: Испания
Жанр: ужасы, фантастика, комедия
Продолжительность: 01:32:07
Перевод1: Профессиональный (многоголосый закадровый)(CP Digital)
Перевод2: Одноголосый (закадровый)(И.Сафронов)
Субтитры: русские, английские, английские SDH
Оригинальная аудиодорожка: английский
Режиссер: Брайан Юзна / Brian Yuzna
В ролях: Джеффри Комбс, Томми Дин Мюссе, Джейсон Бэрри, Барбара Элоррьета, Эльза Патаки, Анхель Плана, Хавьер Сандовал, Сантьяго Сегура, Лоло Херреро, Энрике Арсе
Описание: После ужасных событий в университете Мискатоник гениальный ученый Герберт Уэст отбывает срок в сырой камере старой провинциальной тюрьмы. Он по-прежнему одержим зловещей идеей оживления мертвецов.
Используя любой доступный материал, Уэст продолжает свои чудовищные эксперименты, и, кажется, он близок к успеху — им выделена субстанция, покидающая организм в момент смерти. Получив ее, умерший человек должен обретать не только жизнь, но и разум.
Доктор уверен, что новые опыты с человеческой плотью подтвердят его правоту, но он не предусмотрел их опасные побочные эффекты…


Качество: WEB-DL 720p
Формат: MKV
Видео кодек: H.264
Аудио кодек: AC3
Видео: 1280 x 716; 25,00 fps; 4 096 Kbps
Аудио1: Русский, AC3 5.0 448 Kbps 48,0 КГц(MVO)
Аудио2: Русский, АС3 2.0 192 Kbps 48,0 КГц(Safronov)
Аудио3: English, АС3 5.0 448 Kbps 48,0 КГц(Original)
Субтитры: softsub (SRT)
Чаптеры

MediaInfo

D:\HDFILMS\Beyond.Re-Animator.2003.720p.WEB-DL.2xRus.Eng.mkv
General
Unique ID : 237662200741559719007698320819226867493 (0xB2CC132D0557FF1997B73497BF62F725)
Complete name : D:\HDFILMS\Beyond.Re-Animator.2003.720p.WEB-DL.2xRus.Eng.mkv
Format : Matroska
Format version : Version 4 / Version 2
File size : 3.40 GiB
Duration : 1h 32mn
Overall bit rate : 5 290 Kbps
Movie name : Beyond Re-Animator
Encoded date : UTC 2013-10-26 10:43:06
Writing application : mkvmerge v6.2.0 ('Promised Land') built on Apr 28 2013 12:22:01
Writing library : libebml v1.3.0 + libmatroska v1.4.0
Video #1
ID : 1
Format : AVC
Format/Info : Advanced Video Codec
Format profile : High@L3.1
Format settings, CABAC : No
Format settings, ReFrames : 2 frames
Codec ID : V_MPEG4/ISO/AVC
Duration : 1h 32mn
Bit rate : 4 096 Kbps
Width : 1 280 pixels
Height : 716 pixels
Display aspect ratio : 16:9
Frame rate mode : Constant
Frame rate : 25.000 fps
Color space : YUV
Chroma subsampling : 4:2:0
Bit depth : 8 bits
Scan type : Progressive
Bits/(Pixel*Frame) : 0.179
Stream size : 2.64 GiB (77%)
Title : Beyond.Re-Animator.2003.720p.WEB-DL.DD5.1.H.264
Default : No
Forced : No
Color primaries : BT.709
Transfer characteristics : BT.709
Matrix coefficients : BT.709
Audio #2
ID : 2
Format : AC-3
Format/Info : Audio Coding 3
Mode extension : CM (complete main)
Format settings, Endianness : Big
Codec ID : A_AC3
Duration : 1h 32mn
Bit rate mode : Constant
Bit rate : 448 Kbps
Channel(s) : 5 channels
Channel positions : Front: L C R, Side: L R
Sampling rate : 48.0 KHz
Bit depth : 16 bits
Compression mode : Lossy
Stream size : 295 MiB (8%)
Title : MVO AC3 5.0 448 kbps
Language : Russian
Default : No
Forced : No
Audio #3
ID : 3
Format : AC-3
Format/Info : Audio Coding 3
Mode extension : CM (complete main)
Format settings, Endianness : Big
Codec ID : A_AC3
Duration : 1h 32mn
Bit rate mode : Constant
Bit rate : 192 Kbps
Channel(s) : 2 channels
Channel positions : Front: L R
Sampling rate : 44.1 KHz
Bit depth : 16 bits
Compression mode : Lossy
Stream size : 127 MiB (4%)
Title : Safronov AC3 2.0 192 kbps
Language : Russian
Default : No
Forced : No
Audio #4
ID : 4
Format : AC-3
Format/Info : Audio Coding 3
Mode extension : CM (complete main)
Format settings, Endianness : Big
Codec ID : A_AC3
Duration : 1h 32mn
Bit rate mode : Constant
Bit rate : 448 Kbps
Channel(s) : 5 channels
Channel positions : Front: L C R, Side: L R
Sampling rate : 48.0 KHz
Bit depth : 16 bits
Compression mode : Lossy
Stream size : 295 MiB (8%)
Title : Original AC3 5.0 448 kbps
Language : English
Default : No
Forced : No
Text #5
ID : 5
Format : UTF-8
Codec ID : S_TEXT/UTF8
Codec ID/Info : UTF-8 Plain Text
Language : Russian
Default : No
Forced : No
Text #6
ID : 6
Format : UTF-8
Codec ID : S_TEXT/UTF8
Codec ID/Info : UTF-8 Plain Text
Language : English
Default : No
Forced : No
Text #7
ID : 7
Format : UTF-8
Codec ID : S_TEXT/UTF8
Codec ID/Info : UTF-8 Plain Text
Title : SDH
Language : English
Default : No
Forced : No

Скриншоты

Скачать

Скачать торрент!

Как скачивать? · Что такое торрент? · Рейтинг и ограничения

Сайт не распространяет и не хранит электронные версии произведений, а лишь предоставляет доступ к создаваемому пользователями каталогу ссылок на торрент-файлы, которые содержат только списки хеш-сумм

[Профиль] [ЛС]
Показать сообщения:    
Ответить на тему

Текущее время: Сегодня 01:16

Часовой пояс: GMT + 4



Вы не можете начинать темы
Вы не можете отвечать на сообщения
Вы не можете редактировать свои сообщения
Вы не можете удалять свои сообщения
Вы не можете голосовать в опросах
Вы не можете прикреплять файлы к сообщениям
Вы не можете скачивать файлы