Марш-бросок (Николай Стамбула) [2003, боевик, драма, DVDRip-AVC]

Ответить на тему
 
Автор Сообщение

user ®

Стаж: 7 лет 7 месяцев

Сообщений: 20008

Пост Пост: #1 от 26-Окт-2013 20:55

[Цитировать]

Марш-бросок
Жанр: боевик, драма
Год выпуска: 2003
Продолжительность: 01:50:16
Режиссёр: Николай Стамбула
В ролях: Владимир Волга, Ольга Чурсина, Федор Смирнов, Александр Балуев, Сергей Гармаш, Сергей Болотаев, Евгений Косырев, Марат Гацалов, Александр Прудников, Дмитрий Дьяконов...
Описание: Молодой человек, воспитанник детского дома, стремится попасть на чеченскую войну, искренне веря, что именно там его место, и в этих тяжелых условиях он сможет проявить себя. Пройдя подготовку, Александр попадает в элитные войска спецназа и отправляется навстречу суровым испытаниям, которые ждут его на войне...
Качество видео: DVDRip-AVC
Формат видео: MKV
Видео: 676x562 (1.715) @ 964x562, 25.000 fps, AVC, ~2390 Kbps, 0.252 bits/pixel
Аудио: 48.0 KHz, AC3, 6 ch, 448 Kbps

Log

x264.exe: --pass 2 --bitrate 2390 --preset medium --ref 12 --deblock -1:-1 --merange 32 --bframes 10 --direct auto --b-adapt 2 --trellis 2 --no-fast-pskip --psy-rd 1.00:0.10 --partitions all --subme 10 --me umh --rc-lookahead 50 --stats "D:\Marsh brosok_T04.log" --sar 241:169 --output "D:\Marsh brosok_T04.mp4" "D:\Temp\0293.avs"
avs [info]: 676x562p 241:169 @ 25/1 fps (cfr)
x264 [info]: using SAR=241/169
x264 [info]: using cpu capabilities: MMX2 SSE2Fast SSEMisalign LZCNT
x264 [info]: profile High, level 3.2
x264 [info]: frame I:1018 Avg QP:15.63 size: 73934
x264 [info]: frame P:37237 Avg QP:18.63 size: 28280
x264 [info]: frame B:127150 Avg QP:22.36 size: 6669
x264 [info]: consecutive B-frames: 2.1% 3.7% 11.1% 16.3% 9.5% 54.8% 1.4% 0.4% 0.5% 0.1% 0.1%
x264 [info]: mb I I16..4: 5.0% 72.3% 22.7%
x264 [info]: mb P I16..4: 1.6% 12.9% 2.7% P16..4: 37.1% 24.9% 16.8% 1.0% 0.3% skip: 2.6%
x264 [info]: mb B I16..4: 0.1% 1.1% 0.4% B16..8: 38.6% 11.7% 3.0% direct: 7.8% skip:37.3% L0:35.6% L1:43.3% BI:21.1%
x264 [info]: 8x8 transform intra:73.4% inter:65.3%
x264 [info]: direct mvs spatial:98.3% temporal:1.7%
x264 [info]: coded y,uvDC,uvAC intra: 83.3% 87.7% 61.6% inter: 30.5% 24.4% 5.0%
x264 [info]: i16 v,h,dc,p: 60% 9% 8% 22%
x264 [info]: i8 v,h,dc,ddl,ddr,vr,hd,vl,hu: 19% 10% 8% 7% 11% 13% 10% 12% 11%
x264 [info]: i4 v,h,dc,ddl,ddr,vr,hd,vl,hu: 30% 18% 5% 6% 9% 11% 7% 8% 8%
x264 [info]: i8c dc,h,v,p: 36% 22% 26% 16%
x264 [info]: Weighted P-Frames: Y:7.4% UV:2.0%
x264 [info]: ref P L0: 42.8% 14.4% 18.4% 5.2% 5.1% 3.1% 3.3% 1.6% 1.8% 1.3% 1.5% 1.2% 0.3% 0.0%
x264 [info]: ref B L0: 81.1% 9.8% 3.0% 1.7% 1.1% 1.0% 0.8% 0.5% 0.5% 0.3% 0.2%
x264 [info]: ref B L1: 95.8% 4.2%
x264 [info]: kb/s:2389.70

MediaInfo

General
Unique ID : 187580304958590613303810650786821291126 (0x8D1EA712BD82B7D3A22B8522EBDBBC76)
Complete name : D:\Марш-бросок.mkv
Format : Matroska
Format version : Version 4 / Version 2
File size : 2.19 GiB
Duration : 1h 50mn
Overall bit rate : 2 839 Kbps
Encoded date : UTC 2013-10-26 09:55:38
Writing application : mkvmerge v6.5.0 ('Isn't she lovely') built on Oct 20 2013 12:50:05
Writing library : libebml v1.3.0 + libmatroska v1.4.1
Video
ID : 1
Format : AVC
Format/Info : Advanced Video Codec
Format profile : High@L3.2
Format settings, CABAC : Yes
Format settings, ReFrames : 12 frames
Codec ID : V_MPEG4/ISO/AVC
Duration : 1h 50mn
Bit rate : 2 390 Kbps
Width : 676 pixels
Height : 562 pixels
Display aspect ratio : 1.715
Frame rate mode : Constant
Frame rate : 25.000 fps
Color space : YUV
Chroma subsampling : 4:2:0
Bit depth : 8 bits
Scan type : Progressive
Bits/(Pixel*Frame) : 0.252
Stream size : 1.80 GiB (82%)
Writing library : x264 core 133 r2334 a3ac64b
Encoding settings : cabac=1 / ref=12 / deblock=1:-1:-1 / analyse=0x3:0x133 / me=umh / subme=10 / psy=1 / psy_rd=1.00:0.10 / mixed_ref=1 / me_range=32 / chroma_me=1 / trellis=2 / 8x8dct=1 / cqm=0 / deadzone=21,11 / fast_pskip=0 / chroma_qp_offset=-3 / threads=6 / lookahead_threads=1 / sliced_threads=0 / nr=0 / decimate=1 / interlaced=0 / bluray_compat=0 / constrained_intra=0 / bframes=10 / b_pyramid=2 / b_adapt=2 / b_bias=0 / direct=3 / weightb=1 / open_gop=0 / weightp=2 / keyint=250 / keyint_min=25 / scenecut=40 / intra_refresh=0 / rc_lookahead=50 / rc=2pass / mbtree=1 / bitrate=2390 / ratetol=1.0 / qcomp=0.60 / qpmin=0 / qpmax=69 / qpstep=4 / cplxblur=20.0 / qblur=0.5 / ip_ratio=1.40 / aq=1:1.00
Default : Yes
Forced : No
Audio
ID : 2
Format : AC-3
Format/Info : Audio Coding 3
Mode extension : CM (complete main)
Format settings, Endianness : Big
Codec ID : A_AC3
Duration : 1h 50mn
Bit rate mode : Constant
Bit rate : 448 Kbps
Channel count : 6 channels
Channel positions : Front: L C R, Side: L R, LFE
Sampling rate : 48.0 KHz
Bit depth : 16 bits
Compression mode : Lossy
Stream size : 353 MiB (16%)
Language : Russian
Default : Yes
Forced : No
Menu
00:00:00.000 : :Chapter 01
00:09:32.400 : :Chapter 02
00:14:22.200 : :Chapter 03
00:27:24.000 : :Chapter 04
00:34:36.000 : :Chapter 05
00:45:34.800 : :Chapter 06
00:55:00.600 : :Chapter 07
01:00:37.200 : :Chapter 08
01:11:22.800 : :Chapter 09
01:16:52.800 : :Chapter 10
01:25:21.600 : :Chapter 11
01:34:12.600 : :Chapter 12

Скриншоты

Скачать

Скачать торрент!

Как скачивать? · Что такое торрент? · Рейтинг и ограничения

Сайт не распространяет и не хранит электронные версии произведений, а лишь предоставляет доступ к создаваемому пользователями каталогу ссылок на торрент-файлы, которые содержат только списки хеш-сумм

[Профиль] [ЛС]
Показать сообщения:    
Ответить на тему

Текущее время: Сегодня 06:26

Часовой пояс: GMT + 4



Вы не можете начинать темы
Вы не можете отвечать на сообщения
Вы не можете редактировать свои сообщения
Вы не можете удалять свои сообщения
Вы не можете голосовать в опросах
Вы не можете прикреплять файлы к сообщениям
Вы не можете скачивать файлы