Бедная Саша (Тигран Кеосаян) [1997, Комедия, Приключения, Семейный, SATRip-AVC]

Ответить на тему
 
Автор Сообщение

user ®

Стаж: 7 лет 7 месяцев

Сообщений: 20008

Пост Пост: #1 от 26-Окт-2013 20:55

[Цитировать]

Бедная Саша- Жанр: Комедия, Приключения, Семейный
Год выпуска: 1997
Продолжительность: 01:31:43-Режиссер: Тигран Кеосаян
В ролях: Юлия Чернова, Александр Збруев, Вера Глаголева, Ольга Волкова, Борис Сичкин, Валерий Гаркалин, Армен Джигарханян, Спартак Мишулин, Нина Русланова, Анатолий Журавлев-Описание: «Бедная Саша» — это в первую очередь детектив! «Новая русская» девочка хочет ограбить банк своей «новой русской» мамы, для того, чтобы она перестала быть банкиршей, а стала просто любимой мамочкой.
«Бедная Саша» — это, конечно же, новогодняя сказка о том, как сильно люди нуждаются в любви: девочке недостает родительского тепла, ее мама неуютно чувствует себя без любимого человека.
А главный герой, талантливый и благородный, чтобы вновь почувствовать себя мужчиной, должен защитить нежных и трогательных женщин. Тем более, что они — маленькая и взрослая — так похожи на несбыточную мечту.- -Автор: AngelOfTrue-Качество видео: SATRip-AVC
Формат видео: MKV
Видео: 708x570@772x570 (4:3), 25 fps, x264 ~2070 kbps avg, 0.205 bit/pixel
Аудио: AC3 Dolby Digital / 48 KHz / 192 kbps / 2/0 (L,R) ch

-

x264 log

avs [info]: 708x570p 12:11 @ 25/1 fps (cfr)
x264 [warning]: --psnr used with psy on: results will be invalid!
x264 [warning]: --tune psnr should be used if attempting to benchmark psnr!
x264 [info]: using SAR=12/11
x264 [info]: using cpu capabilities: MMX2 SSE2Fast SSSE3 SSE4.2 AVX AVX2 FMA3 LZCNT BMI1 BMI2
x264 [info]: profile High, level 3.1
x264 [info]: frame I:872 Avg QP:18.72 size: 51031 PSNR Mean Y:45.28 U:48.72 V:49.77 Avg:46.22 Global:45.89
x264 [info]: frame P:25651 Avg QP:21.29 size: 19546 PSNR Mean Y:44.00 U:47.75 V:49.08 Avg:44.99 Global:44.66
x264 [info]: frame B:111069 Avg QP:23.19 size: 7907 PSNR Mean Y:42.51 U:46.87 V:48.41 Avg:43.60 Global:43.25
x264 [info]: consecutive B-frames: 0.9% 0.4% 2.7% 11.6% 15.7% 60.1% 6.2% 1.7% 0.6% 0.1% 0.0% 0.0%
x264 [info]: mb I I16..4: 8.3% 73.8% 17.9%
x264 [info]: mb P I16..4: 2.6% 17.0% 1.9% P16..4: 35.3% 35.1% 7.1% 0.5% 0.0% skip: 0.6%
x264 [info]: mb B I16..4: 0.2% 1.7% 0.2% B16..8: 33.5% 14.8% 1.8% direct:11.8% skip:36.1% L0:42.5% L1:47.6% BI: 9.9%
x264 [info]: 8x8 transform intra:79.4% inter:56.3%
x264 [info]: direct mvs spatial:98.9% temporal:1.1%
x264 [info]: coded y,uvDC,uvAC intra: 89.1% 83.7% 49.6% inter: 30.2% 32.8% 7.5%
x264 [info]: i16 v,h,dc,p: 18% 15% 4% 63%
x264 [info]: i8 v,h,dc,ddl,ddr,vr,hd,vl,hu: 10% 7% 5% 9% 14% 15% 13% 14% 13%
x264 [info]: i4 v,h,dc,ddl,ddr,vr,hd,vl,hu: 11% 18% 4% 8% 11% 12% 12% 10% 14%
x264 [info]: i8c dc,h,v,p: 30% 26% 22% 22%
x264 [info]: Weighted P-Frames: Y:10.0% UV:5.9%
x264 [info]: ref P L0: 43.9% 8.7% 18.6% 8.4% 6.3% 4.7% 3.8% 2.2% 1.8% 1.4% 0.1% 0.0%
x264 [info]: ref B L0: 82.8% 10.3% 2.9% 1.4% 0.9% 0.7% 0.6% 0.2% 0.1%
x264 [info]: ref B L1: 95.7% 4.3%
x264 [info]: SSIM Mean Y:0.9711802 (15.403db)
x264 [info]: PSNR Mean Y:42.802 U:47.046 V:48.546 Avg:43.880 Global:43.497 kb/s:2070.05
encoded 137592 frames, 10.78 fps, 2070.05 kb/s

-

MediaInfo

Format : Matroska
Format version : Version 4 / Version 2
File size : 1.45 GiB
Duration : 1h 31mn
Overall bit rate : 2 264 Kbps
Encoded date : UTC 2013-10-26 11:43:12
Writing application : mkvmerge v6.1.0 ('Old Devil') built on Mar 4 2013 09:10:42
Writing library : libebml v1.3.0 + libmatroska v1.4.0
Video
ID : 1
Format : AVC
Format/Info : Advanced Video Codec
Format profile : High@L3.1
Format settings, CABAC : Yes
Format settings, ReFrames : 10 frames
Codec ID : V_MPEG4/ISO/AVC
Duration : 1h 31mn
Bit rate : 2 070 Kbps
Width : 708 pixels
Height : 570 pixels
Display aspect ratio : 4:3
Original display aspect ratio : 4:3
Frame rate mode : Constant
Frame rate : 25.000 fps
Color space : YUV
Chroma subsampling : 4:2:0
Bit depth : 8 bits
Scan type : Progressive
Bits/(Pixel*Frame) : 0.205
Stream size : 1.30 GiB (90%)
Title : Bednaya.Sasha.1997.RUS.SATRip-AVC.AC3.-AngelOfTrue
Writing library : x264 core 130 r2273 b3065e6
Encoding settings : cabac=1 / ref=10 / deblock=1:-2:-1 / analyse=0x3:0x133 / me=umh / subme=11 / psy=1 / psy_rd=1.00:0.10 / mixed_ref=1 / me_range=32 / chroma_me=1 / trellis=2 / 8x8dct=1 / cqm=0 / deadzone=21,11 / fast_pskip=0 / chroma_qp_offset=-3 / threads=6 / lookahead_threads=1 / sliced_threads=0 / nr=0 / decimate=0 / interlaced=0 / bluray_compat=0 / constrained_intra=0 / bframes=11 / b_pyramid=2 / b_adapt=2 / b_bias=0 / direct=3 / weightb=1 / open_gop=0 / weightp=2 / keyint=250 / keyint_min=25 / scenecut=40 / intra_refresh=0 / rc=2pass / mbtree=0 / bitrate=2070 / ratetol=1.0 / qcomp=0.65 / qpmin=10 / qpmax=51 / qpstep=4 / cplxblur=20.0 / qblur=0.5 / ip_ratio=1.35 / pb_ratio=1.25 / aq=2:1.00
Language : Russian
Default : Yes
Forced : No
Audio
ID : 2
Format : AC-3
Format/Info : Audio Coding 3
Mode extension : CM (complete main)
Format settings, Endianness : Big
Codec ID : A_AC3
Duration : 1h 31mn
Bit rate mode : Constant
Bit rate : 192 Kbps
Channel count : 2 channels
Channel positions : Front: L R
Sampling rate : 48.0 KHz
Bit depth : 16 bits
Compression mode : Lossy
Stream size : 126 MiB (8%)
Title : AC3 Dolby Digital / 48 KHz / 192 kbps / 2/0 (L,R) ch
Language : Russian
Default : Yes
Forced : Yes

-

Скриншоты (анаморф)


Скачать

Скачать торрент!

Как скачивать? · Что такое торрент? · Рейтинг и ограничения

Сайт не распространяет и не хранит электронные версии произведений, а лишь предоставляет доступ к создаваемому пользователями каталогу ссылок на торрент-файлы, которые содержат только списки хеш-сумм

[Профиль] [ЛС]
Показать сообщения:    
Ответить на тему

Текущее время: Сегодня 07:58

Часовой пояс: GMT + 4



Вы не можете начинать темы
Вы не можете отвечать на сообщения
Вы не можете редактировать свои сообщения
Вы не можете удалять свои сообщения
Вы не можете голосовать в опросах
Вы не можете прикреплять файлы к сообщениям
Вы не можете скачивать файлы