Похищенные / Abducted (Люси Филлипс / Lucy Phillips, Глен Скэнтлебери / Glen Scantlebury) [2013, США, триллер, фантастика, DVDRip] DVO (DeadSno & den904)

Ответить на тему
 
Автор Сообщение

user ®

Стаж: 7 лет 7 месяцев

Сообщений: 20008

Пост Пост: #1 от 26-Окт-2013 20:55

[Цитировать]

Похищенные / Abducted
Страна: США
Жанр: триллер, фантастика
Год выпуска: 2013
Продолжительность: 01:25:27
Перевод: Любительский (двухголосый закадровый) DeadSno & den904 по субтитрам Antonio
Cубтитры: нет
Оригинальная аудиодорожка: нет
Режиссер: Люси Филлипс / Lucy Phillips, Глен Скэнтлебери / Glen Scantlebury
В ролях: Джо Бон, Виван Дюгре, Тесса Феррер, Эмили Грэхэм-Хэндли, Даг Хейли, Джелли Хоуи, Тревор Морган, Санг Мин Парк, Росс Томас, May Turnure
Описание: Джессика и Дейв, одна из трех молодых пар, похищенных в парке Гриффита. Находясь в неизвестном помещении, где таинственные похитители воздействуют на их тело и разум, они пытаются избежать верной смерти, но, постепенно, приходят к пониманию, что мир уже никогда не будет таким, как прежде ...
Сэмпл: http://multi-up.com/916974
Качество видео: DVDRip
Формат видео: AVI
Видео: DivX 5 640x352 23.98fps 886Kbps
Аудио: MPEG Audio Layer 3 48000Hz stereo 160Kbps

MediaInfo

General
Complete name : D:\TORRENTS\Похищенные.avi
Format : AVI
Format/Info : Audio Video Interleave
File size : 721 MiB
Duration : 1h 35mn
Overall bit rate : 1 056 Kbps
Video
ID : 0
Format : MPEG-4 Visual
Format profile : Advanced Simple@L5
Format settings, BVOP : 2
Format settings, QPel : No
Format settings, GMC : No warppoints
Format settings, Matrix : Default (H.263)
Codec ID : DX50
Codec ID/Hint : DivX 5
Duration : 1h 35mn
Bit rate : 887 Kbps
Width : 640 pixels
Height : 352 pixels
Display aspect ratio : 16:9
Frame rate : 23.976 fps
Color space : YUV
Chroma subsampling : 4:2:0
Bit depth : 8 bits
Scan type : Progressive
Compression mode : Lossy
Bits/(Pixel*Frame) : 0.164
Stream size : 605 MiB (84%)
Writing library : XviD 64
Audio
ID : 1
Format : MPEG Audio
Format version : Version 1
Format profile : Layer 3
Mode : Joint stereo
Mode extension : MS Stereo
Codec ID : 55
Codec ID/Hint : MP3
Duration : 1h 35mn
Source duration : 1h 35mn
Bit rate mode : Constant
Bit rate : 160 Kbps
Channel(s) : 2 channels
Sampling rate : 48.0 KHz
Compression mode : Lossy
Stream size : 109 MiB (15%)
Alignment : Aligned on interleaves
Interleave, duration : 42 ms (1.00 video frame)
Writing library : LAME3.99r
Encoding settings : -m j -V 4 -q 3 -lowpass 17.5 -b 160

Скриншот c названием фильма

Скриншоты

Скачать

Скачать торрент!

Как скачивать? · Что такое торрент? · Рейтинг и ограничения

Сайт не распространяет и не хранит электронные версии произведений, а лишь предоставляет доступ к создаваемому пользователями каталогу ссылок на торрент-файлы, которые содержат только списки хеш-сумм

[Профиль] [ЛС]
Показать сообщения:    
Ответить на тему

Текущее время: Сегодня 15:54

Часовой пояс: GMT + 4



Вы не можете начинать темы
Вы не можете отвечать на сообщения
Вы не можете редактировать свои сообщения
Вы не можете удалять свои сообщения
Вы не можете голосовать в опросах
Вы не можете прикреплять файлы к сообщениям
Вы не можете скачивать файлы