Тайное дитя / Tyskungen / The hidden child (Пер Ханефьорд / Per Hanefjord) [2013, Швеция, драма, криминал, HDRip] DVO

Ответить на тему
 
Автор Сообщение

user ®

Стаж: 7 лет 7 месяцев

Сообщений: 20008

Пост Пост: #1 от 26-Окт-2013 10:15

[Цитировать]

Тайное дитя
Tyskungen
The hidden child
--Страна: Швеция
Жанр: драма, криминал
Год выпуска: 2013
Продолжительность: 01:45:03--Перевод: Любительский (двухголосый закадровый)
Cубтитры: нет
Оригинальная аудиодорожка: нет--Режиссер: Пер Ханефьорд / Per Hanefjord--В ролях: Якоб Офтебро, Ричард Ульфзэтер, Клаудия Галли, Аманда Оомс, Эдвин Эндре, Чарли Густавссон, Бьёрн Андерссон, Леннарт Якель, Ян Мальмшё, Феликс Энгстрём--Описание: Живописный рыбацкий городок Фьелльбакка на побережье Атлантики выглядит как ожившая туристическая открытка. Именно сюда возвращается автор детективов Эрика, мечтая предаться счастливой семейной жизни и творчеству. Но тихая провинциальная жизнь таит немало секретов. И однажды вековой покой Фьелльбакки взрывается новостью о жестоком убийстве…
--Сэмпл
Качество видео: HDRip
Формат видео: AVI
Видео: Xvid 720x304 24fps 1528Kbps
Аудио: Dolby AC3 48000Hz 6ch 448kbps--

MediaInfo

General
Complete name                  : F:\TORRENTS\Tyskungen.2013.HDRip.avi
Format                         : AVI
Format/Info                    : Audio Video Interleave
File size                      : 1.46 GiB
Duration                       : 1h 45mn
Overall bit rate               : 1 986 Kbps
Writing application            : VirtualDubMod 1.5.10.2 (build 2542/release)
Writing library                : VirtualDubMod build 2542/release
Video
ID                             : 0
Format                         : MPEG-4 Visual
Format profile                 : Advanced Simple@L5
Format settings, BVOP          : Yes
Format settings, QPel          : No
Format settings, GMC           : No warppoints
Format settings, Matrix        : Default (H.263)
Codec ID                       : XVID
Codec ID/Hint                  : XviD
Duration                       : 1h 45mn
Bit rate                       : 1 528 Kbps
Width                          : 720 pixels
Height                         : 304 pixels
Display aspect ratio           : 2.35:1
Frame rate                     : 24.000 fps
Color space                    : YUV
Chroma subsampling             : 4:2:0
Bit depth                      : 8 bits
Scan type                      : Progressive
Compression mode               : Lossy
Bits/(Pixel*Frame)             : 0.291
Stream size                    : 1.12 GiB (77%)
Writing library                : XviD 1.2.1 (UTC 2008-12-04)
Audio
ID                             : 1
Format                         : AC-3
Format/Info                    : Audio Coding 3
Mode extension                 : CM (complete main)
Format settings, Endianness    : Big
Codec ID                       : 2000
Duration                       : 1h 45mn
Bit rate mode                  : Constant
Bit rate                       : 448 Kbps
Channel count                  : 6 channels
Channel positions              : Front: L C R, Side: L R, LFE
Sampling rate                  : 48.0 KHz
Bit depth                      : 16 bits
Compression mode               : Lossy
Stream size                    : 337 MiB (23%)
Alignment                      : Split accross interleaves
Interleave, duration           : 42 ms (1.00 video frame)
Interleave, preload duration   : 500 ms

Скриншоты

-

-
-
Скачать

Скачать торрент!

Как скачивать? · Что такое торрент? · Рейтинг и ограничения

Сайт не распространяет и не хранит электронные версии произведений, а лишь предоставляет доступ к создаваемому пользователями каталогу ссылок на торрент-файлы, которые содержат только списки хеш-сумм

[Профиль] [ЛС]
Показать сообщения:    
Ответить на тему

Текущее время: Сегодня 22:38

Часовой пояс: GMT + 4



Вы не можете начинать темы
Вы не можете отвечать на сообщения
Вы не можете редактировать свои сообщения
Вы не можете удалять свои сообщения
Вы не можете голосовать в опросах
Вы не можете прикреплять файлы к сообщениям
Вы не можете скачивать файлы