Беглец / Running Man / Reonningmaen (Чо Дон О / Jo Dong-Oh) [2013, Южная Корея, комедия, боевик, HDTVRip] DVO

Ответить на тему
 
Автор Сообщение

user ®

Стаж: 8 лет 7 месяцев

Сообщений: 20007

Пост Пост: #1 от 26-Окт-2013 03:55

[Цитировать]

Беглец / Running Man / Reonningmaen
Страна: Южная Корея
Жанр: комедия, боевик
Год выпуска: 2013
Продолжительность: 02:07:25
Перевод: Любительский (двухголосый закадровый) [DeadSno & den904]
Cубтитры: нет
Оригинальная аудиодорожка: нет
Режиссер: Чо Дон О / Jo Dong-Oh
В ролях: Чо Ын Джи, Ким Сан Хо, Ли Мин Хо, Син Ха Гюн
Описание: Чха Чжон У четырежды отбывал сроки в тюрьме, сидел за кражи со взломом, угоны автомобилей и сомнительны сделки.
На свободе он стал вести добропорядочную жизнь автомеханика. Он один воспитывает 17-летнего сына, умного, но упрямого и своенравного. Отец и сын не ладят.
Чха Чжон У старается обеспечить сыну лучшую жизнь, поэтому по ночам еще и подрабатывает в такси.
Однажды у роскошного отеля в его машину подсаживается очередной пассажир и просит отвезти в аэропорт.
Простая поездка оборачивается обвинением в убийстве. Чха пускается в бега, пытаясь доказать свою невиновность.


Сэмпл: http://multi-up.com/916746
Качество видео: HDTVRip (Исх. HDTVRip 720p)
Формат видео: AVI
Видео: 720x304 (2.37:1), 29.970 fps, XviD build 50 ~1432 kbps avg, 0.22 bit/pixel
Аудио: 48 kHz, AC3 Dolby Digital, 2/0 (L,R) ch, ~192.00 kbps avg

MediaInfo

Общее
Полное имя : S:\Фильмы\Беглец. 2013. HDTVRip. 1.45 (AleksSin).avi
Формат : AVI
Формат/Информация : Audio Video Interleave
Размер файла : 1,46 Гбайт
Продолжительность : 2 ч. 7 м.
Общий поток : 1636 Кбит/сек
Программа кодирования : VirtualDubMod 1.5.10.3 | www.virtualdub-fr.org || (build 2550/release)
Библиотека кодирования : VirtualDubMod build 2550/release
Видео
Идентификатор : 0
Формат : MPEG-4 Visual
Профиль формата : Advanced Simple@L5
Параметр BVOP формата : 2
Параметр QPel формата : Нет
Параметр GMC формата : Без точки перехода
Параметр матрицы формата : Default (H.263)
Идентификатор кодека : XVID
Идентификатор кодека/Подсказка : XviD
Продолжительность : 2 ч. 7 м.
Битрейт : 1432 Кбит/сек
Ширина : 720 пикс.
Высота : 304 пикс.
Соотношение сторон : 2,35:1
Частота кадров : 29,970 кадр/сек
Цветовое пространство : YUV
Подвыборка цветности : 4:2:0
Битовая глубина : 8 бит
Тип развёртки : Прогрессивная
Метод сжатия : С потерями
Бит/(Пиксели*Кадры) : 0.218
Размер потока : 1,27 Гбайт (88%)
Библиотека кодирования : XviD 1.2.1 (UTC 2008-12-04)
Аудио
Идентификатор : 1
Формат : AC-3
Формат/Информация : Audio Coding 3
Расширение режима : CM (complete main)
Идентификатор кодека : 2000
Продолжительность : 2 ч. 7 м.
Вид битрейта : Постоянный
Битрейт : 192 Кбит/сек
Каналы : 2 канала
Расположение каналов : Front: L R
Частота : 48,0 КГц
Битовая глубина : 16 бит
Метод сжатия : С потерями
Размер потока : 175 Мбайт (12%)
Выравнивание : Разделение по промежуткам
Продолжительность промежутка : 33 мс. (1,00 видеокадр)
Время предзагрузки промежутка : 500 ms

Скриншот c названием фильма

Скриншоты

Скачать

Скачать торрент!

Как скачивать? · Что такое торрент? · Рейтинг и ограничения

Сайт не распространяет и не хранит электронные версии произведений, а лишь предоставляет доступ к создаваемому пользователями каталогу ссылок на торрент-файлы, которые содержат только списки хеш-сумм

[Профиль] [ЛС]
Показать сообщения:    
Ответить на тему

Текущее время: Сегодня 18:58

Часовой пояс: GMT + 4



Вы не можете начинать темы
Вы не можете отвечать на сообщения
Вы не можете редактировать свои сообщения
Вы не можете удалять свои сообщения
Вы не можете голосовать в опросах
Вы не можете прикреплять файлы к сообщениям
Вы не можете скачивать файлы