Все люди лгут / Liars All (Брайан Брайтли / Brian Brightly) [2013, США, триллер, WEB-DLRip] MVO (НТВ+)

Ответить на тему
 
Автор Сообщение

user ®

Стаж: 7 лет 7 месяцев

Сообщений: 20008

Пост Пост: #1 от 26-Окт-2013 03:55

[Цитировать]

Все люди лгут / Liars All
Страна: США
Жанр: триллер
Год выпуска: 2013
Продолжительность: 01:31:44
Перевод: Профессиональный (многоголосый закадровый) [НТВ+]
Cубтитры: нет
Оригинальная аудиодорожка: нет
Режиссер: Брайан Брайтли / Brian Brightly
В ролях: Сара Пэкстон, Мэтт Лантер, Элис Эванс, Дэрин Брукс, Рэнди Уэйн, Джиллиан Зинсер, Тим Филлиппс, Торранс Кумбс, Клер Скотт, Тиффани Малхерон, Брайан Махони,Стефани МакИнтош, Теган Саммер, Генри Херфорд, Морис Эндрюс, Уоррен Дрэйпер, Чарльз МакНайт, Патрик Тулан, Элизабет ДиМария
Описание: В канун нового года в Лондоне группа друзей играет в провокационную игру, которая постепенно выходит из под контроля и заканчивается убийством. Несмотря на немедленное расследование дела полицией, истинный убийца остается неуловимым среди противоречивых показаний и скрытых мотивов. Ночь с откровениями и новоявленной близостью принимает неожиданный поворот, в результате чего получается взрывной результат, который изменит их жизнь навсегда.


Сэмпл: http://multi-up.com/916721
Качество видео: WEB-DLRip (Исх. WEB-DLRip 1080p)
Формат видео: AVI
Видео: 688x288 (2.39:1), 23.976 fps, XviD build 50 ~998 kbps avg, 0.21 bit/pixel
Аудио: 48 kHz, MPEG Layer 3, 2 ch, ~128.00 kbps avg

MediaInfo

Общее
Полное имя : S:\Фильмы\Все люди лгут. 2013. WEB-DLRip (AleksSin).avi
Формат : AVI
Формат/Информация : Audio Video Interleave
Размер файла : 745 Мбайт
Продолжительность : 1 ч. 31 м.
Общий поток : 1136 Кбит/сек
Программа кодирования : VirtualDubMod 1.5.10.3 | www.virtualdub-fr.org || (build 2550/release)
Библиотека кодирования : VirtualDubMod build 2550/release
Видео
Идентификатор : 0
Формат : MPEG-4 Visual
Профиль формата : Advanced Simple@L5
Параметр BVOP формата : 2
Параметр QPel формата : Нет
Параметр GMC формата : Без точки перехода
Параметр матрицы формата : Default (H.263)
Идентификатор кодека : XVID
Идентификатор кодека/Подсказка : XviD
Продолжительность : 1 ч. 31 м.
Битрейт : 998 Кбит/сек
Ширина : 688 пикс.
Высота : 288 пикс.
Соотношение сторон : 2,40:1
Частота кадров : 23,976 кадр/сек
Цветовое пространство : YUV
Подвыборка цветности : 4:2:0
Битовая глубина : 8 бит
Тип развёртки : Прогрессивная
Метод сжатия : С потерями
Бит/(Пиксели*Кадры) : 0.210
Размер потока : 655 Мбайт (88%)
Библиотека кодирования : XviD 1.2.1 (UTC 2008-12-04)
Аудио
Идентификатор : 1
Формат : MPEG Audio
Версия формата : Version 1
Профиль формата : Layer 3
Идентификатор кодека : 55
Идентификатор кодека/Подсказка : MP3
Продолжительность : 1 ч. 31 м.
Вид битрейта : Постоянный
Битрейт : 128 Кбит/сек
Каналы : 2 канала
Частота : 48,0 КГц
Метод сжатия : С потерями
Размер потока : 84,0 Мбайт (11%)
Выравнивание : Соединение по промежуткам
Продолжительность промежутка : 42 мс. (1,00 видеокадр)
Время предзагрузки промежутка : 504 ms
Библиотека кодирования : LAME3.99r
Настройки программы : -m s -V 4 -q 2 -lowpass 17 -b 128

Скриншот c названием фильма

Скриншоты

Скачать

Скачать торрент!

Как скачивать? · Что такое торрент? · Рейтинг и ограничения

Сайт не распространяет и не хранит электронные версии произведений, а лишь предоставляет доступ к создаваемому пользователями каталогу ссылок на торрент-файлы, которые содержат только списки хеш-сумм

[Профиль] [ЛС]
Показать сообщения:    
Ответить на тему

Текущее время: Сегодня 02:11

Часовой пояс: GMT + 4



Вы не можете начинать темы
Вы не можете отвечать на сообщения
Вы не можете редактировать свои сообщения
Вы не можете удалять свои сообщения
Вы не можете голосовать в опросах
Вы не можете прикреплять файлы к сообщениям
Вы не можете скачивать файлы