Наемный убийца / Bounty Killer (Генри Сэйн / Henry Saine) [2013, США, боевик, BDRip] MVO

Ответить на тему
 
Автор Сообщение

user ®

Стаж: 7 лет 7 месяцев

Сообщений: 20008

Пост Пост: #1 от 26-Окт-2013 03:55

[Цитировать]

Наемный убийцаBounty Killer- Страна: США
Жанр: боевик
Год выпуска: 2013
Продолжительность: 01:32:40-Перевод: Профессиональный (многоголосый, закадровый)
Субтитры: нет
Режиссер: Генри Сэйн / Henry Saine
В ролях: Мэттью Мэрсден, Кристанна Локен, Кристиан Питре, Барак Хардли, Абрахам Бенруби, Гэри Бьюзи, Беверли Д’Анджело, Ив, Кевин МакНэлли, Алекса Вега, Джолин Андерсен, Чести Баллестерос-Описание: Спустя двадцать лет после начала Корпоративной Мировой войны, некогда цветущая и плодородная планета превратилась в выжженную пустыню, усеянную полуразрушенными останками людских поселений. Среди непрекращающейся тьмы и разрухи на свет появился Совет Девяти Роз, призванный уничтожить всё, что хоть отдалённо напоминает о корпорациях. Так началась эпоха наёмных убийц, охотящихся за «белыми воротничками».-


MPAA: R - Лицам до 17 лет обязательно присутствие взрослого-

Доп. Информация

Сценарий: Джейсон Додсон / Jason Dodson, Колин Эбелинг / Colin Ebeling, Генри Сэйн / Henry Saine
Продюсер: Колин Эбелинг / Colin Ebeling, Джейсон Неттер / Jason Netter, Генри Сэйн / Henry Saine, Дес Кэри / Des Carey, Тревор Джонс / Trevor Jones
Оператор: Дэвид Конли / David Conley
Композитор: Грег Эдмонсон / Greg Edmonson
Мировая премьера: 5 апреля 2013
Релиз на DVD: 24 сентября 2013,
«Парадиз / Активижен»,
...
-Качество: BDRip (Исходник BD Remux)
Контейнер: AVI
Видео: XviD, 720x304 (2.35:1), 2054 kbps, 23,976 fps, 0,392 bpp
Аудио: AC3 / 2.0 / 48 kHz / 192 kbps / 16 bit-

Сравнение

Сравнение с [url=http://***/forum/viewtopic.php?p=61434455#61434455]http://***/forum/viewtopic.php?p=61434455#61434455[/url]
http://screenshotcomparison.com/comparison/46282

Media Info

Общее
Полное имя : C:\Users\Андрей\Desktop\Naemnyj.ybijca.2013.P.BDRip.avi
Формат : AVI
Формат/Информация : Audio Video Interleave
Размер файла : 1,46 Гбайт
Продолжительность : 1 ч. 32 м.
Общий поток : 2256 Кбит/сек
Программа кодирования : VirtualDubModRus 1.5.10.2 (build 2542/release)
Библиотека кодирования : VirtualDubMod build 2542/release
Видео
Идентификатор : 0
Формат : MPEG-4 Visual
Профиль формата : Advanced Simple@L5
Параметр BVOP формата : 1
Параметр QPel формата : Нет
Параметр GMC формата : Без точки перехода
Параметр матрицы формата : Выборочная
Идентификатор кодека : XVID
Идентификатор кодека/Подсказка : XviD
Продолжительность : 1 ч. 32 м.
Битрейт : 2055 Кбит/сек
Ширина : 720 пикселей
Высота : 304 пикселя
Соотношение сторон : 2,35:1
Частота кадров : 23,976 кадра/сек
Цветовое пространство : YUV
Субдискретизация насыщенности : 4:2:0
Битовая глубина : 8 бит
Тип развёртки : Прогрессивная
Метод сжатия : С потерями
Бит/(Пиксели*Кадры) : 0.392
Размер потока : 1,33 Гбайт (91%)
Библиотека кодирования : XviD 65
Аудио
Идентификатор : 1
Формат : AC-3
Формат/Информация : Audio Coding 3
Расширение режима : CM (complete main)
Параметр Endianness формата : Big
Идентификатор кодека : 2000
Продолжительность : 1 ч. 32 м.
Вид битрейта : Постоянный
Битрейт : 192 Кбит/сек
Каналы : 2 канала
Расположение каналов : Front: L R
Частота : 48,0 КГц
Битовая глубина : 16 бит
Метод сжатия : С потерями
Размер потока : 127 Мбайт (9%)
Выравнивание : Разделение по промежуткам
Продолжительность промежутка : 42 мс. (1,00 видеокадр)
Время предзагрузки промежутка : 500 мс.

Скриншот с названием фильма

Скриншоты

Скачать

Скачать торрент!

Как скачивать? · Что такое торрент? · Рейтинг и ограничения

Сайт не распространяет и не хранит электронные версии произведений, а лишь предоставляет доступ к создаваемому пользователями каталогу ссылок на торрент-файлы, которые содержат только списки хеш-сумм

[Профиль] [ЛС]
Показать сообщения:    
Ответить на тему

Текущее время: Сегодня 11:50

Часовой пояс: GMT + 4



Вы не можете начинать темы
Вы не можете отвечать на сообщения
Вы не можете редактировать свои сообщения
Вы не можете удалять свои сообщения
Вы не можете голосовать в опросах
Вы не можете прикреплять файлы к сообщениям
Вы не можете скачивать файлы