Книга Даниила / The Book of Daniel (Анна Зелински / Anna Zielinski) [2013, США, Исторический, библейский, DVDRip] VO

Ответить на тему
 
Автор Сообщение

user ®

Стаж: 7 лет 7 месяцев

Сообщений: 20008

Пост Пост: #1 от 26-Окт-2013 00:50

[Цитировать]

Книга Даниила / The Book of Daniel
Страна: США
Жанр: Исторический, библейский
Год выпуска: 2013
Продолжительность: 01:27:44
Перевод: Одноголосый закадровый
Cубтитры: нет
Режиссер: Анна Зелински / Anna Zielinski
В ролях: Лэнс Хенриксен, Элис Эмтер, Роберт Миано, Рольф Саксон, Кевин МакКоркл, Люк Мэсси, Джерри Затарейн, Азель Джеймс, Эндрю Бонджорно, Джеймс Эллис Лэйн

Описание: После захвата и падения Иерусалима в 605 г. до н.э. вавилонским царем Навуходоносором II, пророк Даниил (Роберт Миано) вместе с другими иудеями был взят в плен и отправлен в Вавилон. Даниил никогда не перестает быть рядом с царем, пока он не вынужден выбирать между служением царю или почитанию Богу....
Доп. информация: Рип взят с христианского сайта.
Сэмпл: http://multi-up.com/916700
Качество видео: DVDRip
Формат видео: AVI
Видео: Xvid, MPEG4; 640x360, 29.971 fps, 834 kbps
Аудио: MPEG Laer-3, Stereo, 48.1 kHz, 256 kbps - Русский одноголосый

MediaInfo

Формат : AVI
Формат/Информация : Audio Video Interleave
Размер файла : 685 Мбайт
Продолжительность : 1 ч. 27 м.
Общий поток : 1091 Кбит/сек
Программа кодирования : Lavf52.93.0
Видео
Идентификатор : 0
Формат : MPEG-4 Visual
Профиль формата : Simple@L1
Параметр BVOP формата : Нет
Параметр QPel формата : Нет
Параметр GMC формата : Без точки перехода
Параметр матрицы формата : Default (H.263)
Идентификатор кодека : DIVX
Идентификатор кодека/Информация : Project Mayo
Идентификатор кодека/Подсказка : DivX 4
Продолжительность : 1 ч. 27 м.
Битрейт : 822 Кбит/сек
Ширина : 640 пикселей
Высота : 360 пикселей
Соотношение сторон : 16:9
Частота кадров : 29,970 кадров/сек
Цветовое пространство : YUV
Субдискретизация насыщенности : 4:2:0
Битовая глубина : 8 бит
Тип развёртки : Прогрессивная
Метод сжатия : С потерями
Бит/(Пиксели*Кадры) : 0.119
Размер потока : 516 Мбайт (75%)
Библиотека кодирования : Lavc52.108.0
Аудио
Идентификатор : 1
Формат : MPEG Audio
Версия формата : Version 1
Профиль формата : Layer 3
Режим : Joint stereo
Расширение режима : MS Stereo
Идентификатор кодека : 55
Идентификатор кодека/Подсказка : MP3
Продолжительность : 1 ч. 27 м.
Вид битрейта : Постоянный
Битрейт : 256 Кбит/сек
Каналы : 2 канала
Частота : 44,1 КГц
Метод сжатия : С потерями
Размер потока : 161 Мбайт (23%)
Выравнивание : Соединение по промежуткам
Продолжительность промежутка : 26 мс. (0,78 видеокадр)
Библиотека кодирования : LAME3.98.4

Скриншот c названием фильма

Скачать

Скачать торрент!

Как скачивать? · Что такое торрент? · Рейтинг и ограничения

Сайт не распространяет и не хранит электронные версии произведений, а лишь предоставляет доступ к создаваемому пользователями каталогу ссылок на торрент-файлы, которые содержат только списки хеш-сумм

[Профиль] [ЛС]
Показать сообщения:    
Ответить на тему

Текущее время: Сегодня 13:34

Часовой пояс: GMT + 4



Вы не можете начинать темы
Вы не можете отвечать на сообщения
Вы не можете редактировать свои сообщения
Вы не можете удалять свои сообщения
Вы не можете голосовать в опросах
Вы не можете прикреплять файлы к сообщениям
Вы не можете скачивать файлы