Счастье на продажу / Канцтовары Ми-На / Happiness For Sale (Ик-Хван Чжон / Ik-Hwan Jeong) [2013, Южная корея, Комедия, Драма, DVDRip] VO D.I.M.

Ответить на тему
 
Автор Сообщение

user ®

Стаж: 11 лет

Сообщений: 15151

Пост Пост: #1 от 25-Окт-2013 16:55

[Цитировать]

Счастье на продажу / Канцтовары Ми-На / Happiness For Sale
Страна: Южная корея
Жанр: Комедия, Драма
Год выпуска: 2013
Продолжительность: 01:46:21
Перевод: Одноголосый закадровый D.I.M.
Cубтитры: нет
Режиссер: Ик-Хван Чжон / Ik-Hwan Jeong
В ролях: Чой Ган-Хи / Choi Gang-Hee
Бон Тэ-Гю / Bong Tae-Gyu
Чжу Чжин-Мо / Joo Jin-Mo
Пак Са-Ран / Park Sa-Rang
Гу Сын-Хён / Goo Seung-Hyun
Ян Хан-Ёль / Yang Han-Yol
Описание: Служащая налоговой службы Ми-На узнаёт,
что в тихом родном городке заболел её отец.
У неё плохие воспоминания о детстве,
поэтому она ни в какую не хочет возвращаться туда.
Но дела в Сеуле идут у неё не очень гладко,
и скрепя сердце она возвращается в родной городок,
чтобы попытаться продать магазинчик отца.
Но её намерения постепенно меняются
после появления друга детства Кан-Хо.
Эта полная сердечности и душевного тепла комедия
не оставит вас равнодушными.
Это семьдесят первый фильм с моим переводом и озвучкой, выложенный здесь.
Сэмпл: http://multi-up.com/916514
Качество видео: DVDRip
Формат видео: AVI
Видео: 720*400 (16:9), 29,970 fps, MPEG-4 Visual (XviD) ~ 1703 kbps avg, 0.197 bit/pixel
Аудио: MPEG Audio Layer 3, 48000Hz, stereo, 128kbps

MediaInfo

Общее
Полное имя : D:\TORENT\РАЗДАЧИ (РИПЫ)\Happiness For Sale.avi
Формат : AVI
Формат/Информация : Audio Video Interleave
Размер файла : 1,37 Гбайт
Продолжительность : 1 ч. 46 м.
Общий поток : 1843 Кбит/сек
Программа кодирования : VirtualDubModRus 1.5.10.2 (build 2542/release)
Библиотека кодирования : VirtualDubMod build 2542/release
Видео
Идентификатор : 0
Формат : MPEG-4 Visual
Профиль формата : Advanced Simple@L5
Параметр BVOP формата : 1
Параметр QPel формата : Нет
Параметр GMC формата : Без точки перехода
Параметр матрицы формата : Выборочная
Идентификатор кодека : XVID
Идентификатор кодека/Подсказка : XviD
Продолжительность : 1 ч. 46 м.
Битрейт : 1703 Кбит/сек
Ширина : 720 пикс.
Высота : 400 пикс.
Соотношение сторон : 16:9
Частота кадров : 29,970 кадр/сек
Цветовое пространство : YUV
Подвыборка цветности : 4:2:0
Битовая глубина : 8 бит
Тип развёртки : Прогрессивная
Метод сжатия : С потерями
Бит/(Пиксели*Кадры) : 0.197
Размер потока : 1,27 Гбайт (92%)
Библиотека кодирования : XviD 63
Аудио
Идентификатор : 1
Формат : MPEG Audio
Версия формата : Version 1
Профиль формата : Layer 3
Режим : Joint stereo
Расширение режима : MS Stereo
Идентификатор кодека : 55
Идентификатор кодека/Подсказка : MP3
Продолжительность : 1 ч. 46 м.
Вид битрейта : Постоянный
Битрейт : 128 Кбит/сек
Канал(ы) : 2 канала(ов)
Частота : 48,0 КГц
Метод сжатия : С потерями
Размер потока : 97,4 Мбайт (7%)
Выравнивание : Соединение по промежуткам
Продолжительность промежутка : 33 мс. (1,00 видеокадр)
Время предзагрузки промежутка : 504 ms
Язык : Korean

Скриншот c названием фильма

Скриншоты

Скачать

Скачать торрент! Счастье на продажу / Канцтовары Ми-На / Happiness For Sale (Ик-Хван Чжон / Ik-Hwan Jeong) [2013, Южная корея, Комедия, Драма, DVDRip] VO D.I.M.

Как скачивать? · Что такое торрент? · Рейтинг и ограничения

Сайт не распространяет и не хранит электронные версии произведений, а лишь предоставляет доступ к создаваемому пользователями каталогу ссылок на торрент-файлы, которые содержат только списки хеш-сумм

[Профиль] [ЛС]
Показать сообщения:    
Ответить на тему

Текущее время: Сегодня 05:17

Часовой пояс: GMT + 4



Вы не можете начинать темы
Вы не можете отвечать на сообщения
Вы не можете редактировать свои сообщения
Вы не можете удалять свои сообщения
Вы не можете голосовать в опросах
Вы не можете прикреплять файлы к сообщениям
Вы не можете скачивать файлы