Метро (Антон Мегердичев) [2013, фильм-катастрофа, DVDRip] [Международная версия]

Ответить на тему
 
Автор Сообщение

user ®

Стаж: 7 лет 7 месяцев

Сообщений: 20008

Пост Пост: #1 от 25-Окт-2013 00:45

[Цитировать]

Метро / Международная версия
Жанр: фильм-катастрофа
Год выпуска: 2013
Продолжительность: 02:06:27
Режиссёр: Антон Мегердичев
В ролях: Сергей Пускепалис, Анатолий Белый, Светлана Ходченкова, Анфиса Вистингаузен, Алексей Бардуков, Катерина Шпица, Елена Панова, Станислав Дужников, Сергей Сосновский, Ярослав Жалнин, Николай Рябков, Михаил Фатеев, Александр Яковлев, Иван Макаревич, Владимир Стержаков, Александр Фисенко, Максим Линников, Иван Лапин, Олег Заболотный, Кирилл Плетнёв, Дмитрий Орлов, Анатолий Котенёв, Дмитрий Высоцкий, Александр Журман, Екатерина Директоренко, Александр Армер, Карен Мартиросян, Егор Пежемский, Валентин Варецкий, Владимир Юматов, Аля Никулина, Тамара Спиричева, Роман Радов
Описание: Широко развернувшееся в центре Москвы строительство новых зданий приводит к тому, что в одном из тоннелей метро между двумя станциями возникает трещина. Никто себе и представить не мог, что в результате нарушения герметичности перекрытия в тоннель хлынет вода из Москвы-реки, и сотни пассажиров поезда окажутся во власти надвигающегося потопа. Бешеный поток воды грозит не только обрушением тоннелей метро, но и разрушением всего города...
Доп. информация: 12 августа 2013 года фильм был выпущен компаниями «Showshank Films» и «Condor Entertainment» во Франции на DVD и Blu-ray под англоязычным названием «Subwave».
В сети удалось найти только такой рип. Отдельным файлом к фильму прилагается оригинальная русская дорожка. Она полностью подходит к раздаче с задержкой +500 мс
Сэмпл: http://multi-up.com/916390
Качество видео: DVDRip
Формат видео: AVI
Видео: XviD, 640x272, 1423 Kbps, 25.0 fps
Аудио: MP3, 2.0, 128 Kbps, 48.0 kHz - French
Аудио 2: AC3, 5.1, 448 Kbps, 48.0 kHz - Русский (отдельным файлом)

MediaInfo

General
Complete name : J:\SubWave (2013) DVDRip\SubWave (2013) DVDRip.avi
Format : AVI
Format/Info : Audio Video Interleave
File size : 1.38 GiB
Duration : 2h 6mn
Overall bit rate : 1 564 Kbps
Video
ID : 0
Format : MPEG-4 Visual
Format profile : Simple@L3
Format settings, BVOP : No
Format settings, QPel : No
Format settings, GMC : No warppoints
Format settings, Matrix : Default (H.263)
Codec ID : XVID
Codec ID/Hint : XviD
Duration : 2h 6mn
Bit rate : 1 423 Kbps
Width : 640 pixels
Height : 272 pixels
Display aspect ratio : 2.35:1
Frame rate : 25.000 fps
Color space : YUV
Chroma subsampling : 4:2:0
Bit depth : 8 bits
Scan type : Progressive
Compression mode : Lossy
Bits/(Pixel*Frame) : 0.327
Stream size : 1.26 GiB (91%)
Writing library : XviD 1.1.2 (UTC 2006-11-01)
Audio
ID : 1
Format : MPEG Audio
Format version : Version 1
Format profile : Layer 3
Mode : Joint stereo
Mode extension : MS Stereo
Codec ID : 55
Codec ID/Hint : MP3
Duration : 2h 6mn
Source duration : 2h 6mn
Bit rate mode : Constant
Bit rate : 128 Kbps
Channel(s) : 2 channels
Sampling rate : 48.0 KHz
Compression mode : Lossy
Stream size : 116 MiB (8%)
Alignment : Split accross interleaves
Interleave, duration : 24 ms (0.60 video frame)

Скриншот c названием фильма

Скриншоты

Скачать

Скачать торрент!

Как скачивать? · Что такое торрент? · Рейтинг и ограничения

Сайт не распространяет и не хранит электронные версии произведений, а лишь предоставляет доступ к создаваемому пользователями каталогу ссылок на торрент-файлы, которые содержат только списки хеш-сумм

[Профиль] [ЛС]
Показать сообщения:    
Ответить на тему

Текущее время: Сегодня 13:48

Часовой пояс: GMT + 4



Вы не можете начинать темы
Вы не можете отвечать на сообщения
Вы не можете редактировать свои сообщения
Вы не можете удалять свои сообщения
Вы не можете голосовать в опросах
Вы не можете прикреплять файлы к сообщениям
Вы не можете скачивать файлы