Одноклассники 2 / Grown Ups 2 (Деннис Дуган / Dennis Dugan) [2013, США, комедия, HDRip] Dub (Line)

Ответить на тему
 
Автор Сообщение

user ®

Стаж: 7 лет 7 месяцев

Сообщений: 20008

Пост Пост: #1 от 25-Окт-2013 00:45

[Цитировать]

Одноклассники 2 / Grown Ups 2- Страна: США
Жанр: комедия
Год выпуска: 2013
Продолжительность: 01:40:58
Перевод: Профессиональный (дублированный) Line
Cубтитры: нет-Режиссер: Деннис Дуган / Dennis Dugan
В ролях: Адам Сэндлер, Кевин Джеймс, Крис Рок, Дэвид Спейд, Сальма Хайек, Мария Белло, Майя Рудольф, Ник Свардсон, Стив Бушеми, Колин Куинн, Тим Медоуз, Тим Медоуз, Джон Ловиц, Шакил О`Нил, Александр Людвиг, Питер Данте, Оливер Хадсон, Стив Остин, Тэйлор Лотнер, Майло Вентимилья, Джэйк Голдберг, Камерон Бойс, Ада-Николь Сэнгер, Чайна Энн МакКлейн, Шери Отери, Эйприл Роуз.
Описание: Ленни Федер переехал с семьей обратно в маленький городок, где он и его друзья выросли. События разворачиваются в преддверии летних каникул. Ленни собирается закатить грандиозную вечеринку, а к Маркусу приезжает взрослый сын от одной из его бывших подружек, которого он, мягко говоря боится. По ходу фильма, Ленни узнает что его жена беременна. Старший сын Ленни влюблен в самую красивую девушку школы, с которой он никак не может заговорить. Заявляется старая любовь Ленни, которая думает, что между ними всё еще остались отношения. Между старыми друзьями, которые выросли в этом городке, и молодыми ребятами из колледжа возникают недоразумения. Ленни дает отпор своему старому недругу — Томми Кавана, которого он боялся еще в школьные годы.-Автор рипа: Scarabey
Качество видео: HDRip
Формат видео: AVI | Sample
Видео: 624x336 (1.86:1), 23.976 fps, XviD build 73 ~896 kbps avg, 0.18 bit/pixel
Аудио: 48 kHz, MPEG Layer 3, 2 ch, ~128.00 kbps avg

Скриншоты

Медиаинфо

Format : AVI
Format/Info : Audio Video Interleave
File size : 746 MiB
Duration : 1h 40mn
Overall bit rate : 1 034 Kbps
Writing application : VirtualDubMod 1.5.10.2 (build 2540/release)
Writing library : VirtualDubMod build 2540/release
Video
ID : 0
Format : MPEG-4 Visual
Format profile : Advanced Simple@L5
Format settings, BVOP : Yes
Format settings, QPel : No
Format settings, GMC : No warppoints
Format settings, Matrix : Custom
Codec ID : XVID
Codec ID/Hint : XviD
Duration : 1h 40mn
Bit rate : 896 Kbps
Width : 624 pixels
Height : 336 pixels
Display aspect ratio : 1.857
Frame rate : 23.976 fps
Color space : YUV
Chroma subsampling : 4:2:0
Bit depth : 8 bits
Scan type : Progressive
Bits/(Pixel*Frame) : 0.178
Stream size : 647 MiB (87%)
Writing library : XviD 73
Audio
ID : 1
Format : MPEG Audio
Format version : Version 1
Format profile : Layer 3
Codec ID : 55
Codec ID/Hint : MP3
Duration : 1h 40mn
Bit rate mode : Constant
Bit rate : 128 Kbps
Channel(s) : 2 channels
Sampling rate : 48.0 KHz
Stream size : 92.4 MiB (12%)
Alignment : Aligned on interleaves
Interleave, duration : 42 ms (1.00 video frame)
Interleave, preload duration : 504 ms
Writing library : LAME3.99r
Encoding settings : -m s -V 4 -q 2 -lowpass 17 -b 128
Скачать

Скачать торрент!

Как скачивать? · Что такое торрент? · Рейтинг и ограничения

Сайт не распространяет и не хранит электронные версии произведений, а лишь предоставляет доступ к создаваемому пользователями каталогу ссылок на торрент-файлы, которые содержат только списки хеш-сумм

[Профиль] [ЛС]
Показать сообщения:    
Ответить на тему

Текущее время: Сегодня 15:55

Часовой пояс: GMT + 4



Вы не можете начинать темы
Вы не можете отвечать на сообщения
Вы не можете редактировать свои сообщения
Вы не можете удалять свои сообщения
Вы не можете голосовать в опросах
Вы не можете прикреплять файлы к сообщениям
Вы не можете скачивать файлы