Великан / The Mighty (Питер Челсом / Peter Chelsom) [1998, США, драма, комедия, WEB-DL 720p] MVO + VO (JeRrS1989) + Original Eng + subs (rus, eng)

Ответить на тему
 
Автор Сообщение

user ®

Стаж: 7 лет 7 месяцев

Сообщений: 20008

Пост Пост: #1 от 24-Окт-2013 21:35

[Цитировать]

Великан / The Mighty Страна: США
Студия: Chaos Productions, Jane Startz Productions, Miramax Films
Жанр: драма, комедия
Год выпуска: 1998
Продолжительность: 01:40:29
Перевод 1: Профессиональный (многоголосый закадровый)
Перевод 2: Одноголосый закадровый JeRrS1989
Cубтитры: русские, английские
Оригинальная аудиодорожка: английский
Режиссер: Питер Челсом / Peter Chelsom
В ролях: Шэрон Стоун, Гарри Дин Стэнтон, Джина Роулэндс, Элден Хенсон, Мит Лоуф, Киран Калкин, Джиллиан Андерсон, Джеймс Гандольфини
Описание: Случилось так, что неожиданная встреча мистическим образом изменила судьбы двух одиноких школьников. Они были абсолютно не похожи друг на друга: Макс — молчаливый, застенчивый и неуклюжий гигант и Кевин — маленький, сообразительный и неизлечимо больной.
В своем классе оба мальчика служили постоянными объектами всеобщих насмешек и издевательств. И тогда они решили противостоять несправедливости, объединившись в единое целое — в отважного и могучего рыцаря-великана…

Качество видео: WEB-DL 720p
Контейнер: MKV
Видео кодек: H264
Аудио кодек: AC3
Видео: 1280x718 (1.78:1), 23.976 fps, ~4077 kbps avg, 0.185 bit/pixel
Аудио 1: 48 kHz, AC3 Dolby Digital, 2/0 (L,R) ch, ~192 kbps - MVO
Аудио 2: 48 kHz, AC3 Dolby Digital, 2/0 (L,R) ch, ~192 kbps - JeRrS1989
Аудио 3: 48 kHz, AC3 Dolby Digital, 3/2 (L,C,R,l,r) + LFE ch, ~384 kbps - Оригинал

MediaInfo

Complete name : Velikan.1998.WEBDLRip720p.mkv
Format : Matroska
Format version : Version 2
File size : 3.47 GiB
Duration : 1h 40mn
Overall bit rate : 4 943 Kbps
Encoded date : UTC 2013-10-24 06:00:01
Writing application : mkvmerge v4.0.0 ('The Stars were mine') сборка от Jun 6 2010 16:18:42
Writing library : libebml v1.0.0 + libmatroska v1.0.0
Video
ID : 1
Format : AVC
Format/Info : Advanced Video Codec
Format profile : High@L3.1
Format settings, CABAC : No
Format settings, ReFrames : 2 frames
Codec ID : V_MPEG4/ISO/AVC
Duration : 1h 40mn
Bit rate : 4 077 Kbps
Width : 1 280 pixels
Height : 718 pixels
Display aspect ratio : 16:9
Frame rate mode : Constant
Frame rate : 23.976 fps
Color space : YUV
Chroma subsampling : 4:2:0
Bit depth : 8 bits
Scan type : Progressive
Bits/(Pixel*Frame) : 0.185
Stream size : 2.86 GiB (82%)
Language : English
Default : No
Forced : No
Color primaries : BT.709
Transfer characteristics : BT.709
Matrix coefficients : BT.709
Audio #1
ID : 2
Format : AC-3
Format/Info : Audio Coding 3
Mode extension : CM (complete main)
Format settings, Endianness : Big
Codec ID : A_AC3
Duration : 1h 40mn
Bit rate mode : Constant
Bit rate : 192 Kbps
Channel(s) : 2 channels
Channel positions : Front: L R
Sampling rate : 48.0 KHz
Bit depth : 16 bits
Compression mode : Lossy
Stream size : 138 MiB (4%)
Language : Russian
Default : Yes
Forced : No
Audio #2
ID : 3
Format : AC-3
Format/Info : Audio Coding 3
Mode extension : CM (complete main)
Format settings, Endianness : Big
Codec ID : A_AC3
Duration : 1h 40mn
Bit rate mode : Constant
Bit rate : 192 Kbps
Channel(s) : 2 channels
Channel positions : Front: L R
Sampling rate : 48.0 KHz
Bit depth : 16 bits
Compression mode : Lossy
Stream size : 138 MiB (4%)
Language : Russian
Default : No
Forced : No
Audio #3
ID : 4
Format : AC-3
Format/Info : Audio Coding 3
Mode extension : CM (complete main)
Format settings, Endianness : Big
Codec ID : A_AC3
Duration : 1h 40mn
Bit rate mode : Constant
Bit rate : 384 Kbps
Channel(s) : 6 channels
Channel positions : Front: L C R, Side: L R, LFE
Sampling rate : 48.0 KHz
Bit depth : 16 bits
Compression mode : Lossy
Stream size : 276 MiB (8%)
Language : English
Default : No
Forced : No
Text #1
ID : 5
Format : UTF-8
Codec ID : S_TEXT/UTF8
Codec ID/Info : UTF-8 Plain Text
Language : Russian
Default : No
Forced : No
Text #2
ID : 6
Format : UTF-8
Codec ID : S_TEXT/UTF8
Codec ID/Info : UTF-8 Plain Text
Language : English
Default : No
Forced : No
Menu
00:00:00.000 : en:Chapter 1
00:02:47.000 : en:Chapter 2
00:11:27.000 : en:Chapter 3
00:18:27.000 : en:Chapter 4
00:28:07.000 : en:Chapter 5
00:37:23.000 : en:Chapter 6
00:46:16.000 : en:Chapter 7
00:54:54.000 : en:Chapter 8
01:03:22.000 : en:Chapter 9
01:12:12.000 : en:Chapter 10
01:21:23.000 : en:Chapter 11
01:28:52.000 : en:Chapter 12
01:35:32.000 : en:Chapter 13

Скриншоты

Скачать

Скачать торрент!

Как скачивать? · Что такое торрент? · Рейтинг и ограничения

Сайт не распространяет и не хранит электронные версии произведений, а лишь предоставляет доступ к создаваемому пользователями каталогу ссылок на торрент-файлы, которые содержат только списки хеш-сумм

[Профиль] [ЛС]
Показать сообщения:    
Ответить на тему

Текущее время: Сегодня 06:28

Часовой пояс: GMT + 4



Вы не можете начинать темы
Вы не можете отвечать на сообщения
Вы не можете редактировать свои сообщения
Вы не можете удалять свои сообщения
Вы не можете голосовать в опросах
Вы не можете прикреплять файлы к сообщениям
Вы не можете скачивать файлы