Виртуозность / Виртуальность / Убийца виртуоз / Virtuosity (Бретт Леонард / Brett Leonard) [1995, США, фантастика, боевик, триллер, BDRip 1080p] MVO (СТС) + DVO (НТВ+) + DVO (NORD) + AVO (Ю.Живов) + Sub Eng + Original Eng

Ответить на тему
 
Автор Сообщение

user ®

Стаж: 7 лет 7 месяцев

Сообщений: 20008

Пост Пост: #1 от 24-Окт-2013 02:05

[Цитировать]

Виртуозность / Виртуальность / Убийца виртуоз / Virtuosity
Страна: США
Студия: Paramount Pictures
Жанр: фантастика, боевик, триллер
Год выпуска: 1995
Продолжительность: 01:45:53
Перевод 1: Профессиональный (многоголосый закадровый) СТС
Перевод 2: Профессиональный (двухголосый закадровый) НТВ+
Перевод 3: Профессиональный (двухголосый закадровый) NORD
Перевод 4: Авторский (одноголосый закадровый) Ю.Живов
Cубтитры: английские
Оригинальная аудиодорожка: английский
Режиссер: Бретт Леонард / Brett Leonard
В ролях: Уильям Файтнер, Расселл Кроу, Дэнзел Вашингтон, Уильям Форсайт, Кевин Дж. О'Коннор, Луиз Флетчер, Костас Мэндилор, Стивен Спинелла, Келли Линч
Описание: Его имя Сид 6.7. Он создан из двухсот отборных подонков, негодяев и психопатов, наделен интеллектом и хитростью самых знаменитых серийных убийц в истории человечества. Сид 6.7 был специально придуман, как совершенное воплощение зла и жестокости, для особой компьютерной программы, помогающей полицейским ловить преступников. Но случилось непоправимое. Сиду удалось сбежать из кибернетического пространства в реальный мир. Идеальный преступник был на свободе и жаждал преподать людям страшный урок... Единственным человеком, который встал на пути компьютерного садиста, оказался полицейский по имени Паркер Барнис. Но офицеру Барнису всегда приходилось иметь дело с бандитами из плоти и крови. Сможет ли он совладать с неуязвимым Сидом 6.7?
Тип релиза: BDRip 1080p DON
Контейнер: MKV
Видео: 1920x816; 23.976 fps; 13400 kbps
Аудио 1: Русский, AC3 2.0 192 Kbps 48,0 КГц (Профессиональный многоголосый закадровый СТС)
Аудио 2: Русский, AC3 2.0 192 Kbps 48,0 КГц (Профессиональный двухголосый закадровый НТВ+)
Аудио 3: Русский, AC3 2.0 192 Kbps 48,0 КГц (Профессиональный двухголосый закадровый NORD)
Аудио 4: Русский, AC3 5.1 448 Kbps 48,0 КГц (Авторский одноголосый закадровый Ю.Живов)
Аудио 5: English, DTS-core 1510 kbps 48,0 КГц (Оригинал)
Ю.Живов взят у formally, автору большое спасибо. Дорожка удивила плавающим рассинхроном. Оказалось что в DVD версии есть пропуски. Проведена синхронизация, на пропуски вставлен оригинал, мест без перевода нет.
Многоголосые переводы взяты у tеko за что авторам и ему большое спасибо.

MediaInfo

Complete name : Виртуозность BDRip 1080p DON.mkv
Format : Matroska
Format version : Version 2
File size : 12.0 GiB
Duration : 1h 45mn
Overall bit rate : 16.2 Mbps
Encoded date : UTC 2013-10-23 18:07:50
Writing application : mkvmerge v5.0.1 ('Es ist Sommer') built on Oct 9 2011 11:55:43
Writing library : libebml v1.2.2 + libmatroska v1.3.0
Video
ID : 1
Format : AVC
Format/Info : Advanced Video Codec
Format profile : High@L4.1
Format settings, CABAC : Yes
Format settings, ReFrames : 5 frames
Codec ID : V_MPEG4/ISO/AVC
Duration : 1h 45mn
Bit rate : 13.4 Mbps
Width : 1 920 pixels
Height : 816 pixels
Display aspect ratio : 2.35:1
Frame rate mode : Constant
Frame rate : 23.976 fps
Color space : YUV
Chroma subsampling : 4:2:0
Bit depth : 8 bits
Scan type : Progressive
Bits/(Pixel*Frame) : 0.356
Stream size : 9.88 GiB (82%)
Writing library : x264 core 138 r2358kMod 9e941d1
Encoding settings : cabac=1 / ref=5 / deblock=1:-3:-3 / analyse=0x3:0x133 / me=umh / subme=10 / psy=1 / fade_compensate=0.00 / psy_rd=1.00:0.00 / mixed_ref=1 / me_range=32 / chroma_me=1 / trellis=2 / 8x8dct=1 / cqm=0 / deadzone=21,11 / fast_pskip=0 / chroma_qp_offset=-2 / threads=18 / lookahead_threads=3 / sliced_threads=0 / nr=0 / decimate=0 / interlaced=0 / bluray_compat=0 / constrained_intra=0 / bframes=7 / b_pyramid=2 / b_adapt=2 / b_bias=0 / direct=3 / weightb=1 / open_gop=0 / weightp=2 / keyint=250 / keyint_min=23 / scenecut=40 / intra_refresh=0 / rc_lookahead=40 / rc=crf / mbtree=0 / crf=17.9000 / qcomp=0.65 / qpmin=0 / qpmax=40 / qpstep=4 / vbv_maxrate=50000 / vbv_bufsize=50000 / crf_max=0.0 / nal_hrd=none / ip_ratio=1.25 / pb_ratio=1.25 / aq=1:0.60
Language : English
Default : Yes
Forced : No
Audio #1
ID : 2
Format : AC-3
Format/Info : Audio Coding 3
Mode extension : CM (complete main)
Format settings, Endianness : Big
Codec ID : A_AC3
Duration : 1h 45mn
Bit rate mode : Constant
Bit rate : 192 Kbps
Channel(s) : 2 channels
Channel positions : Front: L R
Sampling rate : 48.0 KHz
Bit depth : 16 bits
Compression mode : Lossy
Stream size : 145 MiB (1%)
Title : Многоголосый закадровый СТС
Language : Russian
Default : Yes
Forced : No
Audio #2
ID : 3
Format : AC-3
Format/Info : Audio Coding 3
Mode extension : CM (complete main)
Format settings, Endianness : Big
Codec ID : A_AC3
Duration : 1h 45mn
Bit rate mode : Constant
Bit rate : 192 Kbps
Channel(s) : 2 channels
Channel positions : Front: L R
Sampling rate : 48.0 KHz
Bit depth : 16 bits
Compression mode : Lossy
Stream size : 145 MiB (1%)
Title : Двухголосый закадровый НТВ+
Language : Russian
Default : No
Forced : No
Audio #3
ID : 4
Format : AC-3
Format/Info : Audio Coding 3
Mode extension : CM (complete main)
Format settings, Endianness : Big
Codec ID : A_AC3
Duration : 1h 45mn
Bit rate mode : Constant
Bit rate : 192 Kbps
Channel(s) : 2 channels
Channel positions : Front: L R
Sampling rate : 48.0 KHz
Bit depth : 16 bits
Compression mode : Lossy
Stream size : 145 MiB (1%)
Title : Двухголосый закадровый NORD
Language : Russian
Default : No
Forced : No
Audio #4
ID : 5
Format : AC-3
Format/Info : Audio Coding 3
Mode extension : CM (complete main)
Format settings, Endianness : Big
Codec ID : A_AC3
Duration : 1h 45mn
Bit rate mode : Constant
Bit rate : 448 Kbps
Channel(s) : 6 channels
Channel positions : Front: L C R, Side: L R, LFE
Sampling rate : 48.0 KHz
Bit depth : 16 bits
Compression mode : Lossy
Stream size : 339 MiB (3%)
Title : Авторский Ю.Живов
Language : Russian
Default : No
Forced : No
Audio #5
ID : 6
Format : DTS
Format/Info : Digital Theater Systems
Mode : 16
Format settings, Endianness : Big
Codec ID : A_DTS
Duration : 1h 45mn
Bit rate mode : Constant
Bit rate : 1 509 Kbps
Channel(s) : 6 channels
Channel positions : Front: L C R, Side: L R, LFE
Sampling rate : 48.0 KHz
Bit depth : 24 bits
Compression mode : Lossy
Stream size : 1.12 GiB (9%)
Title : Оригинал
Language : English
Default : No
Forced : No
Text
ID : 7
Format : UTF-8
Codec ID : S_TEXT/UTF8
Codec ID/Info : UTF-8 Plain Text
Language : English
Default : No
Forced : No
Menu
00:00:00.000 : en:00:00:00.000
00:07:48.843 : en:00:07:48.843
00:12:16.235 : en:00:12:16.235
00:16:12.597 : en:00:16:12.597
00:18:01.372 : en:00:18:01.372
00:21:19.195 : en:00:21:19.195
00:25:11.385 : en:00:25:11.385
00:31:30.931 : en:00:31:30.931
00:35:41.473 : en:00:35:41.473
00:40:19.250 : en:00:40:19.250
00:48:51.137 : en:00:48:51.137
00:52:28.062 : en:00:52:28.062
00:56:36.518 : en:00:56:36.518
01:02:41.883 : en:01:02:41.883
01:06:55.136 : en:01:06:55.136
01:12:33.849 : en:01:12:33.849
01:20:54.516 : en:01:20:54.516
01:27:40.380 : en:01:27:40.380
01:32:57.071 : en:01:32:57.071
01:38:44.877 : en:01:38:44.877

x264log

x264 [info]: frame I:1104 Avg QP:17.64 size:162985
x264 [info]: frame P:35244 Avg QP:18.17 size:109686
x264 [info]: frame B:115996 Avg QP:20.00 size: 58799
x264 [info]: consecutive B-frames: 2.3% 3.5% 8.5% 26.7% 17.7% 35.5% 4.1% 1.5%
encoded 152344 frames, 5.90 fps, 13681.06 kb/s, duration 7:10:27.28

Сравнение

--------------Source-------------vs ------------Encode


Скриншоты

Скачать

Скачать торрент!

Как скачивать? · Что такое торрент? · Рейтинг и ограничения

Сайт не распространяет и не хранит электронные версии произведений, а лишь предоставляет доступ к создаваемому пользователями каталогу ссылок на торрент-файлы, которые содержат только списки хеш-сумм

[Профиль] [ЛС]
Показать сообщения:    
Ответить на тему

Текущее время: Сегодня 00:06

Часовой пояс: GMT + 4



Вы не можете начинать темы
Вы не можете отвечать на сообщения
Вы не можете редактировать свои сообщения
Вы не можете удалять свои сообщения
Вы не можете голосовать в опросах
Вы не можете прикреплять файлы к сообщениям
Вы не можете скачивать файлы