Бэтмен и тайна женщины-летучей мыши / Batman: Mystery of the Batwoman (Курт Геда / Curt Geda) [2003, мультфильм, фантастика, боевик, BDRip] MVO

Ответить на тему
 
Автор Сообщение

user ®

Стаж: 13 лет

Сообщений: 15041

Пост Пост: #1 от 23-Окт-2013 22:55

[Цитировать]

Бэтмен и тайна женщины-летучей мыши / Batman: Mystery of the Batwoman- Страна: США
Жанр: мультфильм, фантастика, боевик, триллер, криминал, детектив
Год выпуска: 2003
Продолжительность: 01:14:49
Перевод: Профессиональный (многоголосый, закадровый) - R5
Субтитры: Нет-Режиссер: Курт Геда / Curt Geda-Описание: Пингвин и Руперт Торн - криминальная когорта, которая собирается заняться контрабандой оружия. Но в Готэм Сити появился новый супер-герой, который имеет другие планы насчет этих предпринимателей - Женщина-летучая мышь! С суперсовременными приспособлениями и крепкими кулаками она стала настоящей грозой преступников...-Рейтинг:

MPAA: - Рекомендуется присутствие родителей-Мировая премьера: 21 октября 2003--Качество: BDRip [BatmanMysteryOfTheBatwoman]
Формат: AVI
Видео: 720x400 (1.80:1), 23.976 fps, XviD build 65 ~2131 kbps avg, 0.31 bit/pixel
Аудио: 48 kHz, AC3 Dolby Digital, 3/2 (L,C,R,l,r) + LFE ch, ~448 kbps - R5
Субтитры: Отсутствуют

MI

Format : AVIFormat/Info : Audio Video InterleaveFile size : 745 MiBDuration : 1h 14mnOverall bit rate : 1 392 KbpsWriting application : VirtualDubMod 1.5.10.3 | www.virtualdub-fr.org || (build 2550/release)Writing library : VirtualDubMod build 2550/release
VideoID : 0Format : MPEG-4 VisualFormat profile : Advanced Simple@L5Format settings, BVOP : 2Format settings, QPel : NoFormat settings, GMC : No warppointsFormat settings, Matrix : CustomCodec ID : XVIDCodec ID/Hint : XviDDuration : 1h 14mnBit rate : 1 254 KbpsWidth : 656 pixelsHeight : 368 pixelsDisplay aspect ratio : 16:9Frame rate : 23.976 fpsColor space : YUVChroma subsampling : 4:2:0Bit depth : 8 bitsScan type : ProgressiveCompression mode : LossyBits/(Pixel*Frame) : 0.217Stream size : 671 MiB (90%)Writing library : XviD 65
AudioID : 1Format : MPEG AudioFormat version : Version 1Format profile : Layer 3Codec ID : 55Codec ID/Hint : MP3Duration : 1h 14mnBit rate mode : ConstantBit rate : 128 KbpsChannel(s) : 2 channelsSampling rate : 48.0 KHzCompression mode : LossyStream size : 68.5 MiB (9%)Alignment : Aligned on interleavesInterleave, duration : 42 ms (1.00 video frame)Interleave, preload duration : 504 msWriting library : LAME3.99rEncoding settings : -m s -V 4 -q 2 -lowpass 17 -b 128
-
Скачать

Скачать торрент! Бэтмен и тайна женщины-летучей мыши / Batman: Mystery of the Batwoman (Курт Геда / Curt Geda) [2003, мультфильм, фантастика, боевик, BDRip] MVO

Как скачивать? · Что такое торрент? · Рейтинг и ограничения

Сайт не распространяет и не хранит электронные версии произведений, а лишь предоставляет доступ к создаваемому пользователями каталогу ссылок на торрент-файлы, которые содержат только списки хеш-сумм

[Профиль] [ЛС]
Показать сообщения:    
Ответить на тему

Текущее время: Сегодня 19:50

Часовой пояс: GMT + 4



Вы не можете начинать темы
Вы не можете отвечать на сообщения
Вы не можете редактировать свои сообщения
Вы не можете удалять свои сообщения
Вы не можете голосовать в опросах
Вы не можете прикреплять файлы к сообщениям
Вы не можете скачивать файлы