Карл и Берта / Carl & Bertha / Carl und Bertha (Тилль Эндеманн / Till Endemann) [2011, Германия, драма, история, биография, HDTV 1080i] DVO (ТПО Ред Медиа) + MVO (СВ-Дубль)

Ответить на тему
 
Автор Сообщение

user ®

Стаж: 7 лет 7 месяцев

Сообщений: 20008

Пост Пост: #1 от 23-Окт-2013 22:55

[Цитировать]

Карл и Берта / Carl & Bertha / Carl und Bertha
Страна: Германия
Студия: Bayerischer Rundfunk (BR), Degeto Film, Norddeutscher Rundfunk (NDR)
Жанр: драма, история, биография
Год выпуска: 2011
Продолжительность: 01:29:01
Перевод 1: Профессиональный (двухголосый закадровый) ТПО Ред Медиа
Перевод 2: Профессиональный (многоголосый закадровый) СВ-Дубль
Cубтитры: нет
Оригинальная аудиодорожка: нет
Режиссер: Тилль Эндеманн / Till Endemann
В ролях: Фелиситас Волль, Кен Дюкен, Хансюрген Хюрриг, Мичу Фриш, Александр Байер, Юрген Шорнагель, Йохан фон Бюлов, Ханнес Хелльманн, Benno Bings, Элерт Боде.
Описание: Фильм основан на реальных событиях из жизни Карла и Берты Бенц. Германия, 1870 год. Молодой изобретатель Карл Бенц мечтает создать повозку, для которой лошади будут не нужны. Никто не верит в его идею, кроме Берты Рингер. Девушка не боится заглянуть в будущее и разделить с любимым все тяготы судьбы.

Доп. информация: За дорогу с телеканала Культура спасибо SkyDelete
Тип релиза: HDTV 1080i
Контейнер: MKV
Видео: AVC 1920x1080 (16:9)) 25.0fps Bit rate 6714Kbps
Аудио 1: MP2 48.0 KHz 2ch. 192kbps rus
Аудио 2: AC3 48.0 KHz 2ch. 192kbps rus

MediaInfo

Общее
Уникальный идентификатор : 208473741837519187792996658781783176288 (0x9CD6950B364CE002A777D9A255B5B460)
Полное имя : E:\torrent\Carl & Bertha_HDTV 1080i.mkv
Формат : Matroska
Версия формата : Version 4 / Version 2
Размер файла : 4,48 Гбайт
Продолжительность : 1 ч. 29 м.
Общий поток : 7209 Кбит/сек
Дата кодирования : UTC 2013-10-23 05:42:20
Программа кодирования : mkvmerge v6.4.1 ('Omega Point') built on Sep 16 2013 22:05:10
Библиотека кодирования : libebml v1.3.0 + libmatroska v1.4.1
Видео
Идентификатор : 1
Формат : AVC
Формат/Информация : Advanced Video Codec
Профиль формата : High@L4.0
Параметр CABAC формата : Да
Параметр ReFrames формата : 3 кадра
Идентификатор кодека : V_MPEG4/ISO/AVC
Продолжительность : 1 ч. 29 м.
Битрейт : 6714 Кбит/сек
Ширина : 1920 пикселей
Высота : 1080 пикселей
Соотношение сторон : 16:9
Режим частоты кадров : Постоянный
Частота кадров : 25,000 кадров/сек
Стандарт вещания : Component
Цветовое пространство : YUV
Субдискретизация насыщенности : 4:2:0
Битовая глубина : 8 бит
Тип развёртки : Чересстрочная
Порядок развёртки : Верхнее поле первое
Бит/(Пиксели*Кадры) : 0.130
Размер потока : 4,18 Гбайт (93%)
Заголовок : Carl & Bertha_HDTV 1080i
Default : Да
Forced : Нет
Основные цвета : BT.709
Характеристики трансфера : BT.709
Коэффициенты матрицы : BT.709
Аудио #1
Идентификатор : 2
Формат : MPEG Audio
Версия формата : Version 1
Профиль формата : Layer 2
Идентификатор кодека : A_MPEG/L2
Идентификатор кодека/Подсказка : MP2
Продолжительность : 1 ч. 29 м.
Вид битрейта : Постоянный
Битрейт : 160 Кбит/сек
Каналы : 2 канала
Частота : 48,0 КГц
Метод сжатия : С потерями
Размер потока : 102 Мбайт (2%)
Заголовок : Carl & Bertha_HDTV 1080i_MP2_2ch_DVO_NTV+
Язык : Russian
Default : Да
Forced : Нет
Аудио #2
Идентификатор : 3
Формат : AC-3
Формат/Информация : Audio Coding 3
Расширение режима : CM (complete main)
Параметр Endianness формата : Big
Идентификатор кодека : A_AC3
Продолжительность : 1 ч. 29 м.
Вид битрейта : Постоянный
Битрейт : 192 Кбит/сек
Каналы : 2 канала
Расположение каналов : Front: L R
Частота : 48,0 КГц
Битовая глубина : 16 бит
Метод сжатия : С потерями
Размер потока : 122 Мбайт (3%)
Заголовок : Carl & Bertha_HDTV 1080i_AC3_2ch_MVO_SV-Double
Язык : Russian
Default : Нет
Forced : Нет

Скриншот с названием фильма

Скриншоты

Скачать

Скачать торрент!

Как скачивать? · Что такое торрент? · Рейтинг и ограничения

Сайт не распространяет и не хранит электронные версии произведений, а лишь предоставляет доступ к создаваемому пользователями каталогу ссылок на торрент-файлы, которые содержат только списки хеш-сумм

[Профиль] [ЛС]
Показать сообщения:    
Ответить на тему

Текущее время: Сегодня 12:51

Часовой пояс: GMT + 4



Вы не можете начинать темы
Вы не можете отвечать на сообщения
Вы не можете редактировать свои сообщения
Вы не можете удалять свои сообщения
Вы не можете голосовать в опросах
Вы не можете прикреплять файлы к сообщениям
Вы не можете скачивать файлы