Робосапиен: Перезагрузка / Robosapien: Rebooted (Шон МакНамара / Sean McNamara) [2013, США, фантастика, драма, приключения, семейный, HDRip] VO (Вячеслав Прошин)

Ответить на тему
 
Автор Сообщение

user ®

Стаж: 7 лет 7 месяцев

Сообщений: 20008

Пост Пост: #1 от 23-Окт-2013 22:55

[Цитировать]

Робосапиен: Перезагрузка / Robosapien: Rebooted
Страна: США / Arad Productions, Arc Productions, Brookwell-McNamara Entertainment
Жанр: фантастика, драма, приключения, семейный
Год выпуска: 2013
Продолжительность: 01:25:50
Перевод: Одноголосый закадровый [Вячеслав Прошин]
Cубтитры: нет
Оригинальная аудиодорожка: нет
Режиссер: Шон МакНамара / Sean McNamara
В ролях: Бобби Коулмэн, Джей Хед (голос Коди), Дэвид Айгенберг, Ким Коутс, Пенелопа Энн Миллер, Жоаким де Алмейда, Холлистон Коулмэн, Робби Харрисон, Питер Джейсон, Билли Слафтер
Описание: Сюжет сталкивает доброго ученого, разрабатывающего искусственный интеллект в гуманистических целях, с могущественной корпорацией, использующей его наработки в качестве вооружения. Кибернетик крадет одного из готовых роботов по имени Тоби, который после серии злоключений и поломок теряется, а потом находится одиннадцатилетним сыном матери-одиночки, который его и восстанавливает. Следом новоиспеченные друзья спасают ученого и мать от тюрьмы.


Сэмпл: http://multi-up.com/916061
Качество видео: HDRip (Исх. BDRip 1080p)
Формат видео: AVI
Видео: 688x384 (1.79:1), 23.976 fps, XviD build 50 ~2030 kbps avg, 0.32 bit/pixel
Аудио: 48 kHz, AC3 Dolby Digital, 3/2 (L,C,R,l,r) + LFE ch, ~384.00 kbps avg

MediaInfo

Общее
Полное имя : S:\Фильмы\Робосапиен. Перезагрузка. 2013. HDRip (AleksSin).avi
Формат : AVI
Формат/Информация : Audio Video Interleave
Размер файла : 1,45 Гбайт
Продолжительность : 1 ч. 25 м.
Общий поток : 2423 Кбит/сек
Программа кодирования : VirtualDubMod 1.5.10.3 | www.virtualdub-fr.org || (build 2550/release)
Библиотека кодирования : VirtualDubMod build 2550/release
Видео
Идентификатор : 0
Формат : MPEG-4 Visual
Профиль формата : Advanced Simple@L5
Параметр BVOP формата : 2
Параметр QPel формата : Нет
Параметр GMC формата : Без точки перехода
Параметр матрицы формата : Default (H.263)
Идентификатор кодека : XVID
Идентификатор кодека/Подсказка : XviD
Продолжительность : 1 ч. 25 м.
Битрейт : 2030 Кбит/сек
Ширина : 688 пикс.
Высота : 384 пикс.
Соотношение сторон : 16:9
Частота кадров : 23,976 кадр/сек
Цветовое пространство : YUV
Подвыборка цветности : 4:2:0
Битовая глубина : 8 бит
Тип развёртки : Прогрессивная
Метод сжатия : С потерями
Бит/(Пиксели*Кадры) : 0.320
Размер потока : 1,22 Гбайт (84%)
Библиотека кодирования : XviD 1.2.1 (UTC 2008-12-04)
Аудио
Идентификатор : 1
Формат : AC-3
Формат/Информация : Audio Coding 3
Расширение режима : CM (complete main)
Идентификатор кодека : 2000
Продолжительность : 1 ч. 25 м.
Вид битрейта : Постоянный
Битрейт : 384 Кбит/сек
Каналы : 6 каналов
Расположение каналов : Front: L C R, Side: L R, LFE
Частота : 48,0 КГц
Битовая глубина : 16 бит
Метод сжатия : С потерями
Размер потока : 236 Мбайт (16%)
Выравнивание : Разделение по промежуткам
Продолжительность промежутка : 42 мс. (1,00 видеокадр)
Время предзагрузки промежутка : 500 ms

Скриншот c названием фильма

Скриншоты

Скачать

Скачать торрент!

Как скачивать? · Что такое торрент? · Рейтинг и ограничения

Сайт не распространяет и не хранит электронные версии произведений, а лишь предоставляет доступ к создаваемому пользователями каталогу ссылок на торрент-файлы, которые содержат только списки хеш-сумм

[Профиль] [ЛС]
Показать сообщения:    
Ответить на тему

Текущее время: Сегодня 05:59

Часовой пояс: GMT + 4



Вы не можете начинать темы
Вы не можете отвечать на сообщения
Вы не можете редактировать свои сообщения
Вы не можете удалять свои сообщения
Вы не можете голосовать в опросах
Вы не можете прикреплять файлы к сообщениям
Вы не можете скачивать файлы