Майами Блюз / Miami Blues (Джордж Эрмитаж / George Armitage) [1990, США, Триллер, драма, криминал, HDTV 1080i] 3х DVO (Лазер Видео, 2х НТВ+) + AVO + Original Eng

Ответить на тему
 
Автор Сообщение

user ®

Стаж: 7 лет 7 месяцев

Сообщений: 20008

Пост Пост: #1 от 23-Окт-2013 19:45

[Цитировать]

Майами Блюз / Miami Blues
Страна: США
Жанр: Триллер, драма, криминал
Год выпуска: 1990
Продолжительность: 01:32:51
Перевод: Профессиональный (двухголосый закадровый) Лазер Видео
Перевод: Профессиональный (двухголосый закадровый) НТВ+
Перевод: Профессиональный (двухголосый закадровый) НТВ+ (2)
Перевод: Авторский (одноголосый закадровый) А. Михалёв
Cубтитры: нет
Оригинальная аудиодорожка: Английский
Режиссер: Джордж Эрмитаж / George Armitage
В ролях: Фред Уорд, Алек Болдуин, Дженнифер Джейсон Ли, Сесилия Перес-Червера, Джорджи Крэнфорд, Эдвард Саксон
Описание: Фред Френгер неизлечимый маньяк-убийца. Отсидев первый срок в тюрьме специального назначения, он выходит на свободу. К несчастью врачи сумели только снять симптомы, но не вылечить болезнь. Желание убивать довольно быстро возвращается к нему, и кровавую мясорубку в Майами остановить уже не возможно.
Повинуясь своим извращенным инстинктам, он находит себе подругу, молодую проститутку, полностью разделяющую его желания. На поиски маньяка отправляется старый опытный полицейский- сержант Ваггонер.
Сэмпл: http://multi-up.com/915920
Качество видео: HDTV 1080i
Формат видео: TS
Видео: 8700 Кбит/сек 1920x1080 (16:9) 25fps
Аудио: Dolby AC3 48000Hz stereo 384kbps RU Лазер Видео
Аудио: Dolby AC3 48000Hz stereo 384kbps RU НТВ+
Аудио: Dolby AC3 48000Hz stereo 384kbps RU НТВ+ (2)
Аудио: Dolby AC3 48000Hz stereo 384kbps RU А. Михалёв
Аудио: Dolby AC3 48000Hz stereo 384kbps ENG

MediaInfo

Общее
Идентификатор : 1 (0x1)
Полное имя : D:\Майами Блюз (Miami Blues) [1990] (RU-RU-RU-RU-ENG).ts
Формат : MPEG-TS
Размер файла : 7,26 Гбайт
Продолжительность : 1 ч. 32 м.
Режим общего битрейта : Переменный
Общий поток : 11,2 Мбит/сек
Максимальный общий битрейт : 35,5 Мбит/сек
Видео
Идентификатор : 4113 (0x1011)
Идентификатор меню : 1 (0x1)
Формат : AVC
Формат/Информация : Advanced Video Codec
Профиль формата : Main@L4.0
Параметр CABAC формата : Да
Параметр ReFrames формата : 4 кадра
Параметр GOP формата : M=4, N=12
Идентификатор кодека : 27
Продолжительность : 1 ч. 32 м.
Вид битрейта : Переменный
Битрейт : 8700 Кбит/сек
Максимальный битрейт : 40,0 Мбит/сек
Ширина : 1920 пикселей
Высота : 1080 пикселей
Соотношение сторон : 16:9
Частота кадров : 25,000 кадров/сек
Цветовое пространство : YUV
Субдискретизация насыщенности : 4:2:0
Битовая глубина : 8 бит
Тип развёртки : Чересстрочная
Порядок развёртки : Верхнее поле первое
Бит/(Пиксели*Кадры) : 0.168
Размер потока : 5,64 Гбайт (78%)
Основные цвета : BT.709-5, BT.1361, IEC 61966-2-4, SMPTE RP177
Характеристики трансфера : BT.709-5, BT.1361
Коэффициенты матрицы : BT.709-5, BT.1361, IEC 61966-2-4 709, SMPTE RP177
Аудио #1
Идентификатор : 4352 (0x1100)
Идентификатор меню : 1 (0x1)
Формат : AC-3
Формат/Информация : Audio Coding 3
Расширение режима : CM (complete main)
Идентификатор кодека : 129
Продолжительность : 1 ч. 32 м.
Вид битрейта : Постоянный
Битрейт : 384 Кбит/сек
Каналы : 2 канала
Расположение каналов : Front: L R
Частота : 48,0 КГц
Битовая глубина : 16 бит
Метод сжатия : С потерями
Размер потока : 255 Мбайт (3%)
Язык : Russian
Аудио #2
Идентификатор : 4353 (0x1101)
Идентификатор меню : 1 (0x1)
Формат : AC-3
Формат/Информация : Audio Coding 3
Расширение режима : CM (complete main)
Идентификатор кодека : 129
Продолжительность : 1 ч. 32 м.
Вид битрейта : Постоянный
Битрейт : 384 Кбит/сек
Каналы : 2 канала
Расположение каналов : Front: L R
Частота : 48,0 КГц
Битовая глубина : 16 бит
Метод сжатия : С потерями
Размер потока : 255 Мбайт (3%)
Язык : Russian
Аудио #3
Идентификатор : 4354 (0x1102)
Идентификатор меню : 1 (0x1)
Формат : AC-3
Формат/Информация : Audio Coding 3
Расширение режима : CM (complete main)
Идентификатор кодека : 129
Продолжительность : 1 ч. 32 м.
Вид битрейта : Постоянный
Битрейт : 384 Кбит/сек
Каналы : 2 канала
Расположение каналов : Front: L R
Частота : 48,0 КГц
Битовая глубина : 16 бит
Метод сжатия : С потерями
Размер потока : 255 Мбайт (3%)
Язык : Russian
Аудио #4
Идентификатор : 4355 (0x1103)
Идентификатор меню : 1 (0x1)
Формат : AC-3
Формат/Информация : Audio Coding 3
Расширение режима : CM (complete main)
Идентификатор кодека : 129
Продолжительность : 1 ч. 32 м.
Вид битрейта : Постоянный
Битрейт : 384 Кбит/сек
Каналы : 2 канала
Расположение каналов : Front: L R
Частота : 48,0 КГц
Битовая глубина : 16 бит
Метод сжатия : С потерями
Размер потока : 255 Мбайт (3%)
Язык : Russian
Аудио #5
Идентификатор : 4356 (0x1104)
Идентификатор меню : 1 (0x1)
Формат : AC-3
Формат/Информация : Audio Coding 3
Расширение режима : CM (complete main)
Идентификатор кодека : 129
Продолжительность : 1 ч. 32 м.
Вид битрейта : Постоянный
Битрейт : 384 Кбит/сек
Каналы : 2 канала
Расположение каналов : Front: L R
Частота : 48,0 КГц
Битовая глубина : 16 бит
Метод сжатия : С потерями
Размер потока : 255 Мбайт (3%)
Язык : English

Скриншот c названием фильма

Скриншоты

Скачать

Скачать торрент!

Как скачивать? · Что такое торрент? · Рейтинг и ограничения

Сайт не распространяет и не хранит электронные версии произведений, а лишь предоставляет доступ к создаваемому пользователями каталогу ссылок на торрент-файлы, которые содержат только списки хеш-сумм

[Профиль] [ЛС]
Показать сообщения:    
Ответить на тему

Текущее время: Сегодня 00:42

Часовой пояс: GMT + 4



Вы не можете начинать темы
Вы не можете отвечать на сообщения
Вы не можете редактировать свои сообщения
Вы не можете удалять свои сообщения
Вы не можете голосовать в опросах
Вы не можете прикреплять файлы к сообщениям
Вы не можете скачивать файлы