Королевство викингов / Vikingdom (Исри Крю / Yusry Abd Halim) [2013, США, Малайзия, приключения, фэнтези, боевик, WEB-DL 720p] MVO + Original (Eng) + Sub (eng)

Ответить на тему
 
Автор Сообщение

user ®

Стаж: 7 лет 7 месяцев

Сообщений: 20008

Пост Пост: #1 от 23-Окт-2013 19:45

[Цитировать]

Королевство викингов
Vikingdom
«Он хотел владеть миром» Страна: США
Год выпуска: 2013
Жанр: приключения, фэнтези, боевик
Продолжительность: 01:54:26
Перевод: Профессиональный (Многолосый закадровый) [BaibaKo]
русские субтитры: нет-Режиссёр: Исри Крю : Yusry Abd Halim
В главных ролях: Доминик Пёрселл, Наташа Мальте, Крэйг Фэйрбрасс, Джон Фу, Конан Стивенс, Джесси Мосс, Теган Мосс, Патрик Мюррэй, Байрон Гибсон, Тревор Коппола, Брюс Блэйн, Антео Квинтавалле-Описание: Воин, пытающийся забыть жестокость своего прошлого, вынужден вновь взять в руки меч, чтобы сразиться с невообразимой силы божеством.- -Качество: WEB-DL 720p
Формат: MKV
Видео кодек: AVC
Аудио кодек: АС3
Видео: 1280x690, 23.976 fps, ~4 056 kbps avg, 0.192 bit/pixel
Аудио #1: [RUS] 48 kHz, AC3 Dolby Digital, 3/2 (L,C,R,l,r) + LFE ch, ~384 kbps
Аудио #2: [ENG] 48 kHz, AC3 Dolby Digital, 3/2 (L,C,R,l,r) + LFE ch, ~384 kbps
субтитры: английские
навигация по главам: 16 глав

скриншоты

MediaInfo

Общее
Уникальный идентификатор : 198600836093317756675120990071230083994 (0x95692135695E0799B61A6F059B30B39A)
Полное имя : D:\Im\Королевство викингов\Vikingdom.2013.WEB-DL 720p.mkv
Формат : Matroska
Версия формата : Version 4 / Version 2
Размер файла : 3,93 Гбайт
Продолжительность : 1 ч. 54 м.
Общий поток : 4922 Кбит/сек
Дата кодирования : UTC 2013-10-23 11:12:36
Программа кодирования : mkvmerge v6.5.0 ('Isn't she lovely') built on Oct 20 2013 12:50:05
Библиотека кодирования : libebml v1.3.0 + libmatroska v1.4.1
Видео
Идентификатор : 1
Формат : AVC
Формат/Информация : Advanced Video Codec
Профиль формата : High@L3.1
Параметр CABAC формата : Нет
Параметр ReFrames формата : 2 кадра
Идентификатор кодека : V_MPEG4/ISO/AVC
Продолжительность : 1 ч. 54 м.
Битрейт : 4056 Кбит/сек
Ширина : 1280 пикселей
Высота : 690 пикселей
Соотношение сторон : 1,855
Частота кадров : 23,976 кадра/сек
Цветовое пространство : YUV
Субдискретизация насыщенности : 4:2:0
Битовая глубина : 8 бит
Тип развёртки : Прогрессивная
Бит/(Пиксели*Кадры) : 0.192
Размер потока : 3,24 Гбайт (82%)
Язык : English
Default : Да
Forced : Нет
Основные цвета : BT.709-5, BT.1361, IEC 61966-2-4, SMPTE RP177
Характеристики трансфера : BT.709-5, BT.1361
Коэффициенты матрицы : BT.709-5, BT.1361, IEC 61966-2-4 709, SMPTE RP177
Аудио #1
Идентификатор : 2
Формат : AC-3
Формат/Информация : Audio Coding 3
Расширение режима : CM (complete main)
Идентификатор кодека : A_AC3
Продолжительность : 1 ч. 54 м.
Вид битрейта : Постоянный
Битрейт : 384 Кбит/сек
Каналы : 6 каналов
Расположение каналов : Front: L C R, Side: L R, LFE
Частота : 48,0 КГц
Битовая глубина : 16 бит
Метод сжатия : С потерями
Размер потока : 314 Мбайт (8%)
Заголовок : MVO [BaibaKo]
Язык : Russian
Default : Да
Forced : Нет
Аудио #2
Идентификатор : 3
Формат : AC-3
Формат/Информация : Audio Coding 3
Расширение режима : CM (complete main)
Идентификатор кодека : A_AC3
Продолжительность : 1 ч. 54 м.
Вид битрейта : Постоянный
Битрейт : 384 Кбит/сек
Каналы : 6 каналов
Расположение каналов : Front: L C R, Side: L R, LFE
Частота : 48,0 КГц
Битовая глубина : 16 бит
Метод сжатия : С потерями
Размер потока : 314 Мбайт (8%)
Заголовок : ENG
Язык : English
Default : Нет
Forced : Нет
Текст
Идентификатор : 4
Формат : UTF-8
Идентификатор кодека : S_TEXT/UTF8
Идентификатор кодека/Информация : UTF-8 Plain Text
Заголовок : Eng Sub
Язык : English
Default : Нет
Forced : Нет
Меню
00:00:00.000 : en:1
00:09:09.000 : en:2
00:16:37.000 : en:3
00:20:23.000 : en:4
00:30:20.000 : en:5
00:35:38.000 : en:6
00:42:11.000 : en:7
00:47:48.000 : en:8
00:58:23.000 : en:9
01:02:21.000 : en:10
01:08:26.000 : en:11
01:16:14.000 : en:12
01:22:59.000 : en:13
01:29:38.000 : en:14
01:36:15.000 : en:15
01:47:49.000 : en:16
Скачать

Скачать торрент!

Как скачивать? · Что такое торрент? · Рейтинг и ограничения

Сайт не распространяет и не хранит электронные версии произведений, а лишь предоставляет доступ к создаваемому пользователями каталогу ссылок на торрент-файлы, которые содержат только списки хеш-сумм

[Профиль] [ЛС]
Показать сообщения:    
Ответить на тему

Текущее время: Сегодня 14:34

Часовой пояс: GMT + 4



Вы не можете начинать темы
Вы не можете отвечать на сообщения
Вы не можете редактировать свои сообщения
Вы не можете удалять свои сообщения
Вы не можете голосовать в опросах
Вы не можете прикреплять файлы к сообщениям
Вы не можете скачивать файлы