45 секунд (Владимир Басов мл., Ольга Басова) [2013, Россия, мелодрама, HDTV 1080i]

Ответить на тему
 
Автор Сообщение

user ®

Стаж: 7 лет 7 месяцев

Сообщений: 20008

Пост Пост: #1 от 23-Окт-2013 02:20

[Цитировать]

45 секунд Страна: Россия
Жанр: мелодрама
Год выпуска: 2013
Продолжительность: 01:35:49
Перевод: Не требуется
Cубтитры: нет
Режиссер: Владимир Басов мл., Ольга Басова
В ролях: Ольга Ломоносова, Григорий Антипенко, Алиса Гребенщикова, Андрей Казаков, Александр Константинов, Юрий Смирнов, Светлана Фролова, Анатолий Кот, Людмила Гамуряк, Владимир Басов мл.
Описание:
Мелодраматическая история жизни современной городской интеллигенции. 45 секунд — именно то короткое время, за которое изменилась жизнь героев картины. Главная героиня — Татьяна Чернигова — успешная бизнес-леди, бывшая бесстрашная альпинистка, тяжело переживает семейную драму: неудачные попытки родить ребенка.
Беда не приходит одна, и на фоне психологических переживаний героини разыгрывается криминально-детективная трагедия, виновницей которой, по мнению свидетелей и участников, становится она…

Доп. информация: Запись со спутника телеканал "Россия HD"
Сэмпл: http://sendfile.su/885082

Качество: HDTV 1080i
Контейнер: TS
Видео: AVC/H.264, 1920x1080 (16:9), 8764 Кбит/сек, 25.000 fps
Аудио: русский, Mp2, 48000 Hz, 192 Кбит/сек, 2 ch

MediaInfo

Видео
Идентификатор : 306 (0x132)
Идентификатор меню : 1 (0x1)
Формат : AVC
Формат/Информация : Advanced Video Codec
Профиль формата : High@L4.0
Параметр CABAC формата : Да
Параметр ReFrames формата : 3 кадра
Параметр GOP формата : M=4, N=28
Идентификатор кодека : 27
Продолжительность : 1 ч. 35 м.
Битрейт : 8764 Кбит/сек
Ширина : 1920 пикселей
Высота : 1080 пикселей
Соотношение сторон : 16:9
Частота кадров : 25,000 кадров/сек
Стандарт вещания : Component
Цветовое пространство : YUV
Субдискретизация насыщенности : 4:2:0
Битовая глубина : 8 бит
Тип развёртки : Чересстрочная
Порядок развёртки : Верхнее поле первое
Бит/(Пиксели*Кадры) : 0.169
Размер потока : 5,87 Гбайт (93%)
Основные цвета : BT.709
Характеристики трансфера : BT.709
Коэффициенты матрицы : BT.709
Аудио
Идентификатор : 406 (0x196)
Идентификатор меню : 1 (0x1)
Формат : MPEG Audio
Версия формата : Version 1
Профиль формата : Layer 2
Идентификатор кодека : 3
Продолжительность : 1 ч. 35 м.
Вид битрейта : Постоянный
Битрейт : 192 Кбит/сек
Каналы : 2 канала
Частота : 48,0 КГц
Метод сжатия : С потерями
Размер потока : 132 Мбайт (2%)

Скриншот c названием фильма

Скриншоты

Время раздачи: с 19:00 до 24:00 (МСК)
Скачать

Скачать торрент!

Как скачивать? · Что такое торрент? · Рейтинг и ограничения

Сайт не распространяет и не хранит электронные версии произведений, а лишь предоставляет доступ к создаваемому пользователями каталогу ссылок на торрент-файлы, которые содержат только списки хеш-сумм

[Профиль] [ЛС]
Показать сообщения:    
Ответить на тему

Текущее время: Сегодня 16:11

Часовой пояс: GMT + 4



Вы не можете начинать темы
Вы не можете отвечать на сообщения
Вы не можете редактировать свои сообщения
Вы не можете удалять свои сообщения
Вы не можете голосовать в опросах
Вы не можете прикреплять файлы к сообщениям
Вы не можете скачивать файлы