Королевство викингов / Vikingdom (Исри Крю / Yusry Abd Halim) [2013, США, Приключения, фэнтези, боевик, WEB-DLRip] MVO (BaibaKo)

Ответить на тему
 
Автор Сообщение

user ®

Стаж: 7 лет 7 месяцев

Сообщений: 20008

Пост Пост: #1 от 22-Окт-2013 06:50

[Цитировать]

Королевство викингов / Vikingdom
«Он хотел владеть миром»
- Год выпуска: 2013
Выпущено: США, Малайзия / KRU Studios
Жанр: приключения, фэнтези, боевик
Продолжительность: 01:54:26
Перевод: Профессиональный (многолосый закадровый) BaibaKo
Cубтитры: нет-Режиссер:
Исри Крю / Yusry Abd Halim-В ролях:
Доминик Пёрселл (Eirick), Наташа Мальте (Brynna), Крэйг Фэйрбрасс (Sven), Джон Фу (Yang), Конан Стивенс (Thor), Джесси Мосс (Frey), Теган Мосс (Freyja), Патрик Мюррэй (Alcuin), Байрон Гибсон (Captain of Jomsberg 5), Тревор Коппола (Geat), Брюс Блэйн (Bernard), Антео Квинтавалле (Trondelag Captain)-Описание:
Воин, пытающийся забыть жестокость своего прошлого, вынужден вновь взять в руки меч, чтобы сразиться с невообразимой силы божеством.-| IMDB | КиноПоиск | Сэмпл |-Тип релиза: WEB-DLRip [Vikingdom 2013 720p WEB DL H264 PublicHD]
Контейнер: AVI
Видео: 688x368 (1.87:1), 23.976 fps, XviD build 73 ~1432 kbps avg, 0.24 bit/pixel
Аудио: 48 kHz, AC3 Dolby Digital, 3/2 (L,C,R,l,r) + LFE ch, ~384.00 kbps avg
-

Скриншоты

MediaInfo

General
Complete name                            : D:\Korolevstvo_vikingov_2013_WEB_DLRip_by_Dalemake.avi
Format                                   : AVI
Format/Info                              : Audio Video Interleave
File size                                : 1.46 GiB
Duration                                 : 1h 54mn
Overall bit rate                         : 1 826 Kbps
Writing application                      : VirtualDubMod 1.5.10.3 | www.virtualdub-fr.org || (build 2550/release)
Writing library                          : VirtualDubMod build 2550/release
Video
ID                                       : 0
Format                                   : MPEG-4 Visual
Format profile                           : Advanced Simple@L5
Format settings, BVOP                    : 1
Format settings, QPel                    : No
Format settings, GMC                     : No warppoints
Format settings, Matrix                  : Custom
Codec ID                                 : XVID
Codec ID/Hint                            : XviD
Duration                                 : 1h 54mn
Bit rate                                 : 1 432 Kbps
Width                                    : 688 pixels
Height                                   : 368 pixels
Display aspect ratio                     : 1.85:1
Frame rate                               : 23.976 fps
Color space                              : YUV
Chroma subsampling                       : 4:2:0
Bit depth                                : 8 bits
Scan type                                : Progressive
Compression mode                         : Lossy
Bits/(Pixel*Frame)                       : 0.236
Stream size                              : 1.14 GiB (78%)
Writing library                          : XviD 73
Audio
ID                                       : 1
Format                                   : AC-3
Format/Info                              : Audio Coding 3
Mode extension                           : CM (complete main)
Format settings, Endianness              : Big
Codec ID                                 : 2000
Duration                                 : 1h 54mn
Bit rate mode                            : Constant
Bit rate                                 : 384 Kbps
Channel(s)                               : 6 channels
Channel positions                        : Front: L C R, Side: L R, LFE
Sampling rate                            : 48.0 KHz
Bit depth                                : 16 bits
Compression mode                         : Lossy
Stream size                              : 314 MiB (21%)
Alignment                                : Split accross interleaves
Interleave, duration                     : 42 ms (1.00 video frame)
Interleave, preload duration             : 500 ms
-
Скачать

Скачать торрент!

Как скачивать? · Что такое торрент? · Рейтинг и ограничения

Сайт не распространяет и не хранит электронные версии произведений, а лишь предоставляет доступ к создаваемому пользователями каталогу ссылок на торрент-файлы, которые содержат только списки хеш-сумм

[Профиль] [ЛС]
Показать сообщения:    
Ответить на тему

Текущее время: Сегодня 03:14

Часовой пояс: GMT + 4



Вы не можете начинать темы
Вы не можете отвечать на сообщения
Вы не можете редактировать свои сообщения
Вы не можете удалять свои сообщения
Вы не можете голосовать в опросах
Вы не можете прикреплять файлы к сообщениям
Вы не можете скачивать файлы