Человек из стали / Man of Steel (Зак Снайдер / Zack Snyder) [2013, США, Канада, Великобритания, фантастика, фэнтези, боевик, приключения., BDRip-AVC] Dub + Original Eng, Sub (Rus, Eng)

Ответить на тему
 
Автор Сообщение

user ®

Стаж: 7 лет 7 месяцев

Сообщений: 20008

Пост Пост: #1 от 22-Окт-2013 03:45

[Цитировать]

Человек из сталиMan of Steel- Страна: США, Канада, Великобритания
Жанр: фантастика, фэнтези, боевик, приключения.
Год выпуска: 2013
Продолжительность: 02:23:03
Перевод: Профессиональный (дублированный)
Cубтитры: русские, английские.
Оригинальная аудиодорожка: английский
Режиссер: Зак Снайдер / Zack Snyder
В ролях:
Генри Кавилл (Clark Kent /Kal-El), Эми Адамс (Lois Lane), Майкл Шеннон (General Zod), Рассел Кроу (Jor-El), Дайан Лэйн (Martha Kent), Кевин Костнер (Jonathan Kent), Антье Трауэ (Faora-Ul), Лоренс Фишбёрн (Perry White), Кристофер Мелони (Colonel Nathan Hardy), Гарри Дж. Ленникс (General Swanwick), Ричард Шифф (Dr. Emil Hamilton), Айелет Зурер (Lara Lor-Van)
Дублёры: Антон Савенков (Clark Kent /Kal-El), Рамиля Искандер (Lois Lane), Илья Исаев (General Zod), Денис Беспалый (Jor-El), Анна Каменкова (Martha Kent), Владимир Антоник (Jonathan Kent), Анна Антонова (Faora-Ul), Владислав Копп (Perry White), Василий Дахненко (Colonel Nathan Hardy), Денис Некрасов (General Swanwick), Никита Прозоровский (Dr. Emil Hamilton), Ирина Киреева (Lara Lor-Van)-Описание: Кларк Кент/Кал-Эл — молодой человек, который чувствует себя чужаком из-за своей невероятной силы. Много лет назад он был отправлен на Землю с развитой планеты Криптон, и теперь задается вопросом: зачем? Воспитанный приемными родителями Мартой и Джонатаном Кентами, Кларк знает: обладать сверхспособностями — значит принимать сложные решения. Но когда человечество более всего нуждается в стабильности, оно подвергается нападению. Сможет ли герой восстановить мир, или воспользуется своей силой для того, чтобы окончательно его разрушить?--
MPAA: PG-13 - Детям до 13 лет просмотр не желателен
Качество видео: BDRip-AVC (Man of Steel (2013) Blu-ray CEE 1080p AVC DD5.1)
Формат видео: MKV
Видео: AVC, 1104x460 (2.35:1), 3473 kbps, 23,976 fps, 0,285 bpp
Аудио 1: русский / AC3 / 5.1 / 48 kHz / 448 kbps / Дублированный
Аудио 2: английский / AC3 / 5.1 / 48 kHz / 448 kbps / Eng
Cубтитры: русские, английские.
Навигация по главам: есть

MediaInfo

x264

x264 [info]: frame I:1319 Avg QP:17.32 size: 70430 PSNR Mean Y:46.38 U:50.42 V:51.03 Avg:47.38 Global:46.53
x264 [info]: frame P:53966 Avg QP:20.04 size: 32922 PSNR Mean Y:44.34 U:49.35 V:50.04 Avg:45.47 Global:44.57
x264 [info]: frame B:150492 Avg QP:22.63 size: 12315 PSNR Mean Y:42.94 U:48.94 V:49.64 Avg:44.18 Global:42.97
x264 [info]: consecutive B-frames: 5.1% 6.1% 9.3% 27.4% 16.8% 23.4% 5.4% 2.3% 1.6% 0.9% 0.5% 0.5% 0.2% 0.4%
x264 [info]: mb I I16..4: 16.7% 63.8% 19.6%
x264 [info]: mb P I16..4: 1.8% 20.9% 2.1% P16..4: 27.6% 32.2% 9.1% 0.0% 0.0% skip: 6.4%
x264 [info]: mb B I16..4: 0.1% 2.1% 0.2% B16..8: 39.1% 18.7% 3.3% direct: 7.1% skip:29.5% L0:42.6% L1:45.7% BI:11.7%
x264 [info]: 8x8 transform intra:83.5% inter:59.1%
x264 [info]: direct mvs spatial:98.5% temporal:1.5%
x264 [info]: coded y,uvDC,uvAC intra: 92.1% 77.3% 45.0% inter: 36.2% 22.2% 6.4%
x264 [info]: i16 v,h,dc,p: 15% 10% 14% 61%
x264 [info]: i8 v,h,dc,ddl,ddr,vr,hd,vl,hu: 7% 7% 8% 10% 14% 13% 14% 12% 14%
x264 [info]: i4 v,h,dc,ddl,ddr,vr,hd,vl,hu: 9% 7% 5% 9% 16% 14% 15% 11% 14%
x264 [info]: i8c dc,h,v,p: 35% 28% 17% 20%
x264 [info]: Weighted P-Frames: Y:5.8% UV:2.8%
x264 [info]: ref P L0: 45.6% 10.1% 18.4% 6.9% 5.6% 3.8% 3.5% 2.0% 1.9% 1.7% 0.5% 0.0%
x264 [info]: ref B L0: 74.2% 12.3% 5.3% 2.8% 1.9% 1.5% 1.2% 0.6% 0.2%
x264 [info]: ref B L1: 93.4% 6.6%
x264 [info]: SSIM Mean Y:0.9682949 (14.989db)
x264 [info]: PSNR Mean Y:43.326 U:49.059 V:49.752 Avg:44.537 Global:43.356 kb/s:3470.22
x264 [total]: encoded 205777 frames, 6.51 fps, 3470.22 kb/s
Общее
Уникальный идентификатор : 213787396709391213427468855371693882018 (0xA0D5F474B02F5B63A7A46ECCD6C4FAA2)
Полное имя : D:\Man of Steel.2013.BDrip-AVC.Froloff777.mkv
Формат : Matroska
Версия формата : Version 4 / Version 2
Размер файла : 4,36 Гбайт
Продолжительность : 2 ч. 23 м.
Общий поток : 4369 Кбит/сек
Дата кодирования : UTC 2013-10-21 14:54:44
Программа кодирования : mkvmerge v6.1.0 ('Old Devil') built on Mar 4 2013 09:10:42
Библиотека кодирования : libebml v1.3.0 + libmatroska v1.4.0
Attachment : Yes
Видео
Идентификатор : 1
Формат : AVC
Формат/Информация : Advanced Video Codec
Профиль формата : High@L4.1
Параметр CABAC формата : Да
Параметр ReFrames формата : 10 кадров
Идентификатор кодека : V_MPEG4/ISO/AVC
Продолжительность : 2 ч. 23 м.
Битрейт : 3473 Кбит/сек
Ширина : 1104 пикселя
Высота : 460 пикселей
Соотношение сторон : 2,40:1
Режим частоты кадров : Постоянный
Частота кадров : 23,976 кадра/сек
Цветовое пространство : YUV
Субдискретизация насыщенности : 4:2:0
Битовая глубина : 8 бит
Тип развёртки : Прогрессивная
Бит/(Пиксели*Кадры) : 0.285
Размер потока : 3,38 Гбайт (77%)
Заголовок : Man of Steel
Библиотека кодирования : x264 core 130 r2273 b3065e6
Настройки программы : cabac=1 / ref=10 / deblock=1:-3:-2 / analyse=0x3:0x113 / me=umh / subme=11 / psy=1 / psy_rd=1.05:0.15 / mixed_ref=1 / me_range=32 / chroma_me=1 / trellis=2 / 8x8dct=1 / cqm=0 / deadzone=21,11 / fast_pskip=0 / chroma_qp_offset=-3 / threads=6 / lookahead_threads=1 / sliced_threads=0 / nr=0 / decimate=0 / interlaced=0 / bluray_compat=0 / constrained_intra=0 / bframes=13 / b_pyramid=2 / b_adapt=2 / b_bias=0 / direct=3 / weightb=1 / open_gop=0 / weightp=2 / keyint=250 / keyint_min=24 / scenecut=40 / intra_refresh=0 / rc_lookahead=60 / rc=2pass / mbtree=0 / bitrate=3473 / ratetol=1.0 / qcomp=0.65 / qpmin=0 / qpmax=69 / qpstep=4 / cplxblur=20.0 / qblur=0.5 / vbv_maxrate=50000 / vbv_bufsize=62500 / nal_hrd=none / ip_ratio=1.30 / pb_ratio=1.40 / aq=2:0.90
Язык : English
Default : Да
Forced : Нет
Аудио #1
Идентификатор : 2
Формат : AC-3
Формат/Информация : Audio Coding 3
Расширение режима : CM (complete main)
Параметр Endianness формата : Big
Идентификатор кодека : A_AC3
Продолжительность : 2 ч. 23 м.
Вид битрейта : Постоянный
Битрейт : 448 Кбит/сек
Каналы : 6 каналов
Расположение каналов : Front: L C R, Side: L R, LFE
Частота : 48,0 КГц
Битовая глубина : 16 бит
Метод сжатия : С потерями
Размер потока : 458 Мбайт (10%)
Заголовок : Дублированный
Язык : Russian
Default : Да
Forced : Нет
Аудио #2
Идентификатор : 3
Формат : AC-3
Формат/Информация : Audio Coding 3
Расширение режима : CM (complete main)
Параметр Endianness формата : Big
Идентификатор кодека : A_AC3
Продолжительность : 2 ч. 23 м.
Вид битрейта : Постоянный
Битрейт : 448 Кбит/сек
Каналы : 6 каналов
Расположение каналов : Front: L C R, Side: L R, LFE
Частота : 48,0 КГц
Битовая глубина : 16 бит
Метод сжатия : С потерями
Размер потока : 458 Мбайт (10%)
Язык : English
Default : Нет
Forced : Нет
Текст #1
Идентификатор : 4
Формат : UTF-8
Идентификатор кодека : S_TEXT/UTF8
Идентификатор кодека/Информация : UTF-8 Plain Text
Язык : Russian
Default : Нет
Forced : Нет
Текст #2
Идентификатор : 5
Формат : UTF-8
Идентификатор кодека : S_TEXT/UTF8
Идентификатор кодека/Информация : UTF-8 Plain Text
Язык : English
Default : Нет
Forced : Нет
Меню
00:00:00.000 : en:Chapter 1
00:11:16.967 : en:Chapter 2
00:20:01.450 : en:Chapter 3
00:30:09.474 : en:Chapter 4
00:39:21.609 : en:Chapter 5
00:48:57.643 : en:Chapter 6
00:59:03.414 : en:Chapter 7
01:08:57.883 : en:Chapter 8
01:17:35.108 : en:Chapter 9
01:28:36.185 : en:Chapter 10
01:40:47.791 : en:Chapter 11
01:50:55.857 : en:Chapter 12
02:00:53.579 : en:Chapter 13
02:10:13.555 : en:Chapter 14
02:12:49.920 : en:Chapter 15

Сравнение с исходником

.........................Source........................................................................BDrip-AVC...........................



Скриншоты

Скачать

Скачать торрент!

Как скачивать? · Что такое торрент? · Рейтинг и ограничения

Сайт не распространяет и не хранит электронные версии произведений, а лишь предоставляет доступ к создаваемому пользователями каталогу ссылок на торрент-файлы, которые содержат только списки хеш-сумм

[Профиль] [ЛС]
Показать сообщения:    
Ответить на тему

Текущее время: Сегодня 17:32

Часовой пояс: GMT + 4



Вы не можете начинать темы
Вы не можете отвечать на сообщения
Вы не можете редактировать свои сообщения
Вы не можете удалять свои сообщения
Вы не можете голосовать в опросах
Вы не можете прикреплять файлы к сообщениям
Вы не можете скачивать файлы