Таинственный гость (А. Нориньш) [1984, Рижская киностудия, кукольная анимация, TeleSynch]

Ответить на тему
 
Автор Сообщение

user ®

Стаж: 7 лет 7 месяцев

Сообщений: 20008

Пост Пост: #1 от 22-Окт-2013 00:35

[Цитировать]

Таинственный гость
Страна: СССР
Жанр: кукольная анимация
Продолжительность: 00:09:30
Год выпуска: 1984
Режиссёр: А. Нориньш
Описание: Капустное поле охранял Пёс. Но он был очень ленив. Увидев однажды, что большая часть капустных кочанов изгрызена, Пёс решил, что это зайцы напроказничали. Поймав одного Зайчёнка, Пёс посадил его на цепь и заставил охранять поле, а сам в это время улёгся спать. Заяц отнёсся к делу серьёзно и выследил нарушителя. Таинственным гостем оказался Кабан. (Каталог фильмов 1984 год)
Доп. информация: Фильм оцифрован с киноплёнки 35-мм из личной коллекции ENKVANT
Качество: TeleSynch
Формат: AVI
Видео: XviD, 4:3, 720х544, 25 fps, 1437 kbps
Аудио: МР-3, 48 kHz, 2 ch, 128 kbps
Субтитры: нет

Подробные технические данные

ОбщееПолное имя : Таинственный гость.aviФормат : AVIФормат/Информация : Audio Video InterleaveРазмер файла : 100 МбайтПродолжительность : 9 м. 30 с.Общий поток : 1472 Кбит/секПрограмма кодирования : VirtualDubMod 1.5.4.1 (build 2178/release)Библиотека кодирования : VirtualDubMod build 2178/release
ВидеоИдентификатор : 0Формат : MPEG-4 VisualПрофиль формата : Advanced Simple@L5Параметр BVOP формата : 1Параметр QPel формата : НетПараметр GMC формата : Без точки переходаПараметр матрицы формата : ВыборочнаяИдентификатор кодека : XVIDИдентификатор кодека/Подсказка : XviDПродолжительность : 9 м. 30 с.Битрейт : 1337 Кбит/секШирина : 720 пикселейВысота : 544 пикселяСоотношение сторон : 4:3Частота кадров : 25,000 кадров/секЦветовое пространство : YUVСубдискретизация насыщенности : 4:2:0Битовая глубина : 8 битТип развёртки : ПрогрессивнаяМетод сжатия : С потерямиБит/(Пиксели*Кадры) : 0.137Размер потока : 90,9 Мбайт (91%)Библиотека кодирования : XviD 1.2.1 (UTC 2008-12-04)
АудиоИдентификатор : 1Формат : MPEG AudioВерсия формата : Version 1Профиль формата : Layer 3Режим : Joint stereoИдентификатор кодека : 55Идентификатор кодека/Подсказка : MP3Продолжительность : 9 м. 30 с.Вид битрейта : ПостоянныйБитрейт : 128 Кбит/секКаналы : 2 каналаЧастота : 48,0 КГцМетод сжатия : С потерямиРазмер потока : 8,70 Мбайт (9%)Выравнивание : Соединение по промежуткамПродолжительность промежутка : 80 мс. (2,00 видеокадра)Время предзагрузки промежутка : 504 мс.Библиотека кодирования : LAME3.98rНастройки программы : -m j -V 4 -q 2 -lowpass 17 -b 128

Скриншоты

, , , ,
Скачать

Скачать торрент!

Как скачивать? · Что такое торрент? · Рейтинг и ограничения

Сайт не распространяет и не хранит электронные версии произведений, а лишь предоставляет доступ к создаваемому пользователями каталогу ссылок на торрент-файлы, которые содержат только списки хеш-сумм

[Профиль] [ЛС]
Показать сообщения:    
Ответить на тему

Текущее время: Сегодня 07:06

Часовой пояс: GMT + 4



Вы не можете начинать темы
Вы не можете отвечать на сообщения
Вы не можете редактировать свои сообщения
Вы не можете удалять свои сообщения
Вы не можете голосовать в опросах
Вы не можете прикреплять файлы к сообщениям
Вы не можете скачивать файлы