Бэтмен и тайна женщины-летучей мыши / Batman: Mystery of the Batwoman (Курт Геда / Curt Geda) [2003, мультфильм, фантастика, боевик, BDRip] 2xMVO + Eng

Ответить на тему
 
Автор Сообщение

user ®

Стаж: 12 лет

Сообщений: 15145

Пост Пост: #1 от 21-Окт-2013 21:25

[Цитировать]

Бэтмен и тайна женщины-летучей мыши / Batman: Mystery of the Batwoman- Страна: США
Жанр: мультфильм, фантастика, боевик, триллер, криминал, детектив
Год выпуска: 2003
Продолжительность: 01:14:49
Перевод: Профессиональный (многоголосый, закадровый) - R5
Перевод 2: Профессиональный (многоголосый, закадровый) - ТВ3
Субтитры: Нет-Режиссер: Курт Геда / Curt Geda-Описание: Пингвин и Руперт Торн - криминальная когорта, которая собирается заняться контрабандой оружия. Но в Готэм Сити появился новый супер-герой, который имеет другие планы насчет этих предпринимателей - Женщина-летучая мышь! С суперсовременными приспособлениями и крепкими кулаками она стала настоящей грозой преступников...-Рейтинг:

MPAA: - Рекомендуется присутствие родителей-Мировая премьера: 21 октября 2003-Качество: BDRip [BatmanMysteryOfTheBatwoman]
Формат: AVI
Видео: 720x400 (1.80:1), 23.976 fps, XviD build 65 ~2131 kbps avg, 0.31 bit/pixel
Аудио: 48 kHz, AC3 Dolby Digital, 3/2 (L,C,R,l,r) + LFE ch, ~448 kbps - R5
Аудио 2: 48 kHz, AC3 Dolby Digital, 2/0 (L,R) ch, ~192 kbps - TB3
Аудио 3: 48 kHz, AC3 Dolby Digital, 3/2 (L,C,R,l,r) + LFE ch, ~448 kbps - Eng (Отдельным файлом)
Субтитры: Отсутствуют

MI

Format : AVIFormat/Info : Audio Video InterleaveFile size : 1.46 GiBDuration : 1h 14mnOverall bit rate : 2 787 KbpsWriting application : VirtualDubMod 1.5.10.3 | www.virtualdub-fr.org || (build 2550/release)Writing library : VirtualDubMod build 2550/release
VideoID : 0Format : MPEG-4 VisualFormat profile : Advanced Simple@L5Format settings, BVOP : 2Format settings, QPel : NoFormat settings, GMC : No warppointsFormat settings, Matrix : CustomCodec ID : XVIDCodec ID/Hint : XviDDuration : 1h 14mnBit rate : 2 133 KbpsWidth : 720 pixelsHeight : 400 pixelsDisplay aspect ratio : 16:9Frame rate : 23.976 fpsColor space : YUVChroma subsampling : 4:2:0Bit depth : 8 bitsScan type : ProgressiveCompression mode : LossyBits/(Pixel*Frame) : 0.309Stream size : 1.11 GiB (77%)Writing library : XviD 65
Audio #1ID : 1Format : AC-3Format/Info : Audio Coding 3Mode extension : CM (complete main)Format settings, Endianness : BigCodec ID : 2000Duration : 1h 14mnBit rate mode : ConstantBit rate : 448 KbpsChannel(s) : 6 channelsChannel positions : Front: L C R, Side: L R, LFESampling rate : 48.0 KHzBit depth : 16 bitsCompression mode : LossyStream size : 240 MiB (16%)Alignment : Split accross interleavesInterleave, duration : 42 ms (1.00 video frame)Interleave, preload duration : 500 ms
Audio #2ID : 2Format : AC-3Format/Info : Audio Coding 3Mode extension : CM (complete main)Format settings, Endianness : BigCodec ID : 2000Duration : 1h 14mnBit rate mode : ConstantBit rate : 192 KbpsChannel(s) : 2 channelsChannel positions : Front: L RSampling rate : 48.0 KHzBit depth : 16 bitsCompression mode : LossyStream size : 103 MiB (7%)Alignment : Split accross interleavesInterleave, duration : 42 ms (1.00 video frame)Interleave, preload duration : 500 ms
-
Скачать

Скачать торрент! Бэтмен и тайна женщины-летучей мыши / Batman: Mystery of the Batwoman (Курт Геда / Curt Geda) [2003, мультфильм, фантастика, боевик, BDRip] 2xMVO + Eng

Как скачивать? · Что такое торрент? · Рейтинг и ограничения

Сайт не распространяет и не хранит электронные версии произведений, а лишь предоставляет доступ к создаваемому пользователями каталогу ссылок на торрент-файлы, которые содержат только списки хеш-сумм

[Профиль] [ЛС]
Показать сообщения:    
Ответить на тему

Текущее время: Сегодня 20:41

Часовой пояс: GMT + 4



Вы не можете начинать темы
Вы не можете отвечать на сообщения
Вы не можете редактировать свои сообщения
Вы не можете удалять свои сообщения
Вы не можете голосовать в опросах
Вы не можете прикреплять файлы к сообщениям
Вы не можете скачивать файлы