Мэлоун / Malone (Харли Коуклисс / Harley Cokeliss) [1987, США, боевик, драма, триллер, HDTV 1080i] DVO (НТВ+) + AVO (Андрей Гаврилов) + Original Eng

Ответить на тему
 
Автор Сообщение

user ®

Стаж: 7 лет 7 месяцев

Сообщений: 20008

Пост Пост: #1 от 21-Окт-2013 21:25

[Цитировать]

Мэлоун / Malone
Страна: США
Студия: Orion Pictures Corporation
Жанр: боевик, драма, триллер
Год выпуска: 1987
Продолжительность: 01:27:56
Перевод 1: Профессиональный (двухголосый закадровый) НТВ+
Перевод 2: Авторский (одноголосый закадровый) Андрей Гаврилов
Cубтитры: нет
Оригинальная аудиодорожка: английский
Режиссер: Харли Коуклисс / Harley Cokeliss
В ролях: Берт Рейнолдс, Клифф Робертсон, Кеннет МакМиллан, Синтия Гибб, Скотт Уилсон, Лоурен Хаттон, Филип Энглим, Трейси Уолтер, Дэннис Беркли, Алекс Дьякун, Брукс Гарднер, Майк Киртон, Дункан Фрайзер, Кэмпбелл Лэйн
Описание: По роману Уильяма П. Уингэйта. Ричард Мэлоун - бывший агент ЦРУ, который хочет забыть прошлое и начать жизнь заново. Путешествуя по штатам, Мэлоун из-за поломки мащины останавливается на несколько дней в маленьком городе. Вскоре у него завязываются дружеские отношения с одной семьей. А еще он узнает, что все население города находится во власти миллионера Чарльза Дилэйни, который намерен стать следующим президентом США. Однако, агент Мэлоуни намерен этому помешать...

Доп. информация:
За дорогу с Андреем Гавриловым спасибо edich2
За оригинальную дорогу спасибо christm и JimmyWang
Тип релиза: HDTV 1080i
Контейнер: MKV
Видео: AVC 1920x1080 (16:9)) 25.0fps Bit rate 8101Kbps
Аудио 1: MP2 48.0 KHz 2ch. 192kbps rus
Аудио 2: AC3 48.0 KHz 2ch. 192kbps rus
Аудио 3: AC3 48.0 KHz 2ch. 192kbps eng

MediaInfo

Общее
Уникальный идентификатор : 245342229555828368766529100247687102726 (0xB89331D4BDDBA418B9D0B8B5112E0106)
Полное имя : E:\torrent\Malone_1987_HDTV 1080i.mkv
Формат : Matroska
Версия формата : Version 4 / Version 2
Размер файла : 5,44 Гбайт
Продолжительность : 1 ч. 27 м.
Общий поток : 8854 Кбит/сек
Дата кодирования : UTC 2013-10-21 06:44:09
Программа кодирования : mkvmerge v6.4.1 ('Omega Point') built on Sep 16 2013 22:05:10
Библиотека кодирования : libebml v1.3.0 + libmatroska v1.4.1
Видео
Идентификатор : 1
Формат : AVC
Формат/Информация : Advanced Video Codec
Профиль формата : High@L4.0
Параметр CABAC формата : Да
Параметр ReFrames формата : 3 кадра
Параметр GOP формата : M=4, N=32
Идентификатор кодека : V_MPEG4/ISO/AVC
Продолжительность : 1 ч. 27 м.
Битрейт : 8101 Кбит/сек
Ширина : 1920 пикселей
Высота : 1080 пикселей
Соотношение сторон : 16:9
Режим частоты кадров : Постоянный
Частота кадров : 25,000 кадров/сек
Стандарт вещания : Component
Цветовое пространство : YUV
Субдискретизация насыщенности : 4:2:0
Битовая глубина : 8 бит
Тип развёртки : Чересстрочная
Порядок развёртки : Верхнее поле первое
Бит/(Пиксели*Кадры) : 0.156
Размер потока : 4,98 Гбайт (92%)
Заголовок : Malone_1987_HDTV 1080i
Default : Да
Forced : Нет
Основные цвета : BT.709
Характеристики трансфера : BT.709
Коэффициенты матрицы : BT.709
Аудио #1
Идентификатор : 2
Формат : MPEG Audio
Версия формата : Version 1
Профиль формата : Layer 2
Идентификатор кодека : A_MPEG/L2
Идентификатор кодека/Подсказка : MP2
Продолжительность : 1 ч. 27 м.
Вид битрейта : Постоянный
Битрейт : 192 Кбит/сек
Каналы : 2 канала
Частота : 48,0 КГц
Метод сжатия : С потерями
Размер потока : 121 Мбайт (2%)
Заголовок : Malone_1987_HDTV 1080i_MP2_2ch_DVO_NTV+
Язык : Russian
Default : Да
Forced : Нет
Аудио #2
Идентификатор : 3
Формат : AC-3
Формат/Информация : Audio Coding 3
Расширение режима : CM (complete main)
Параметр Endianness формата : Big
Идентификатор кодека : A_AC3
Продолжительность : 1 ч. 27 м.
Вид битрейта : Постоянный
Битрейт : 192 Кбит/сек
Каналы : 2 канала
Расположение каналов : Front: L R
Частота : 48,0 КГц
Битовая глубина : 16 бит
Метод сжатия : С потерями
Размер потока : 121 Мбайт (2%)
Заголовок : Malone_1987_HDTV 1080i_AC3_2ch_AVO_A. Gavrilov
Язык : Russian
Default : Нет
Forced : Нет
Аудио #3
Идентификатор : 4
Формат : AC-3
Формат/Информация : Audio Coding 3
Расширение режима : CM (complete main)
Параметр Endianness формата : Big
Идентификатор кодека : A_AC3
Продолжительность : 1 ч. 27 м.
Вид битрейта : Постоянный
Битрейт : 192 Кбит/сек
Каналы : 2 канала
Расположение каналов : Front: L R
Частота : 48,0 КГц
Битовая глубина : 16 бит
Метод сжатия : С потерями
Размер потока : 121 Мбайт (2%)
Заголовок : Malone_1987_HDTV 1080i_AC3_2ch_original eng
Язык : English
Default : Нет
Forced : Нет

Скриншот с названием фильма

Скриншоты

Сравнение с DVD


Скачать

Скачать торрент!

Как скачивать? · Что такое торрент? · Рейтинг и ограничения

Сайт не распространяет и не хранит электронные версии произведений, а лишь предоставляет доступ к создаваемому пользователями каталогу ссылок на торрент-файлы, которые содержат только списки хеш-сумм

[Профиль] [ЛС]
Показать сообщения:    
Ответить на тему

Текущее время: Сегодня 16:17

Часовой пояс: GMT + 4



Вы не можете начинать темы
Вы не можете отвечать на сообщения
Вы не можете редактировать свои сообщения
Вы не можете удалять свои сообщения
Вы не можете голосовать в опросах
Вы не можете прикреплять файлы к сообщениям
Вы не можете скачивать файлы