Коди-робот / Cody The Robosapien / Robosapien: Rebooted (Шон МакНамара / Sean McNamara) [2013, США, семейный, фантастика, приключения, DVDRip] VO (Прошин) + Sub Rus + Original Eng

Ответить на тему
 
Автор Сообщение

user ®

Стаж: 7 лет 7 месяцев

Сообщений: 20008

Пост Пост: #1 от 21-Окт-2013 13:30

[Цитировать]

Коди-робот / Cody The Robosapien / Robosapien: Rebooted
Страна: США
Жанр: семейный, фантастика, приключения
Год выпуска: 2013
Продолжительность: 01:25:48
Перевод 1: Одноголосый закадровый (Вячеслав Прошин)
Перевод 2: Субтитры (Алексей Крылов aka rrrtttsss aka prostotak)
Cубтитры: русские
Оригинальная аудиодорожка: английский
Режиссер: Шон Макнамара / Sean McNamara
В ролях: Бобби Коулмэн, Джей Хед (голос Коди), Дэвид Айгенберг, Ким Коутс, Пенелопа Энн Миллер, Жоаким де Алмейда, Холлистон Коулмэн, Робби Харрисон, Питер Джейсон, Билли Слафтер и др.
Описание: Талантливый ученый Аллан Тофер разрабатывает робота для поиска и спасения людей, но его шеф Найлс Портер, глава корпорации "Кинетэк", вознамерился продать супертехнологичную разработку людям, преследующим совсем иные, немирные цели. Узнав о планах Портера, Аллан сбегает, прихватив свое детище - Робосапиена, но в погоню за ним бросается служба безопасности корпорации "Кинетэк". В результате Робосапиен оказывается у мальчика по имени Генри, записного "ботаника", которого третирует школьный хулиган Уоррен. Благодаря роботу, которого его новый владелец называет Коди, дела в школе у Генри идут на поправку, но спецагенты из "Кинетэк" преследуют Робосапиена буквально по пятам. Теперь настала пора Генри помочь своему новому другу...
Доп. информация: Информация о фильме на IMDB - http://www.imdb.com/title/tt1037222
Релиз кинопортала Близзардкид.
Для справки: Съемки фильма проходили в Новом Орлеане в 2008 году с 24 марта по 25 апреля, когда Бобби Коулмэну было 11 лет. А вышел на экраны фильм только в этом году: 3 мая - в Великобритании, а 28 мая - в США. В конце июня фильм был выпущен на DVD, а в сентябре - на Blu-ray.
Сэмпл: http://multi-up.com/915232
Качество видео: DVDRip
Формат видео: AVI
Видео: 720x304 (2.37:1), 23.976 fps, XviD build 64 ~1899 kbps avg, 0.36 bit/pixel
Аудио 1: 48 kHz, AC3 Dolby Digital, 3/2 (L,C,R,l,r) + LFE ch, ~384.00 kbps avg (русский)
Аудио 2: 48 kHz, AC3 Dolby Digital, 3/2 (L,C,R,l,r) + LFE ch, ~384.00 kbps avg (английский)
Формат субтитров: softsub (SRT)

MediaInfo

Общее
Полное имя : H:\SEED\Cody The Robosapien (2013) ru\Cody The Robosapien (2013) ru.avi
Формат : AVI
Формат/Информация : Audio Video Interleave
Размер файла : 1,61 Гбайт
Продолжительность : 1 ч. 25 м.
Общий поток : 2680 Кбит/сек
Программа кодирования : VirtualDubMod 1.5.10.2 (build 2542/release)
Библиотека кодирования : VirtualDubMod build 2542/release
Видео
Идентификатор : 0
Формат : MPEG-4 Visual
Профиль формата : Advanced Simple@L5
Параметр BVOP формата : 3
Параметр QPel формата : Нет
Параметр GMC формата : 3 точки перехода
Параметр матрицы формата : Default (H.263)
Идентификатор кодека : XVID
Идентификатор кодека/Подсказка : XviD
Продолжительность : 1 ч. 25 м.
Битрейт : 1900 Кбит/сек
Ширина : 720 пикселей
Высота : 304 пикселя
Соотношение сторон : 2,40:1
Частота кадров : 23,976 кадра/сек
Цветовое пространство : YUV
Субдискретизация насыщенности : 4:2:0
Битовая глубина : 8 бит
Тип развёртки : Прогрессивная
Метод сжатия : С потерями
Бит/(Пиксели*Кадры) : 0.362
Размер потока : 1,14 Гбайт (71%)
Библиотека кодирования : XviD 64
Аудио #1
Идентификатор : 1
Формат : AC-3
Формат/Информация : Audio Coding 3
Расширение режима : CM (complete main)
Параметр Endianness формата : Big
Идентификатор кодека : 2000
Продолжительность : 1 ч. 25 м.
Вид битрейта : Постоянный
Битрейт : 384 Кбит/сек
Каналы : 6 каналов
Расположение каналов : Front: L C R, Side: L R, LFE
Частота : 48,0 КГц
Битовая глубина : 16 бит
Метод сжатия : С потерями
Размер потока : 236 Мбайт (14%)
Выравнивание : Разделение по промежуткам
Продолжительность промежутка : 42 мс. (1,00 видеокадр)
Время предзагрузки промежутка : 500 мс.
Аудио #2
Идентификатор : 2
Формат : AC-3
Формат/Информация : Audio Coding 3
Расширение режима : CM (complete main)
Параметр Endianness формата : Big
Идентификатор кодека : 2000
Продолжительность : 1 ч. 25 м.
Вид битрейта : Постоянный
Битрейт : 384 Кбит/сек
Каналы : 6 каналов
Расположение каналов : Front: L C R, Side: L R, LFE
Частота : 48,0 КГц
Битовая глубина : 16 бит
Метод сжатия : С потерями
Размер потока : 236 Мбайт (14%)
Выравнивание : Разделение по промежуткам
Продолжительность промежутка : 80 мс. (1,92 видеокадра)
Время предзагрузки промежутка : 560 мс.

Образец субтитров

1
00:00:18,560 --> 00:00:21,120
Система GPS обнаружила Робосапиена
2
00:00:21,280 --> 00:00:24,113
в точке с координатами 34-52-72.
3
00:00:24,280 --> 00:00:26,510
Робосапиен продолжает выполнять задание.
4
00:00:26,680 --> 00:00:29,148
Расчетное время прибытия -
3 минуты 26 секунд.
5
00:00:33,320 --> 00:00:34,919
Господин командующий,
вывожу изображение на экран.
6
00:00:34,920 --> 00:00:37,514
Спасательная операция Робо
начинается.
7
00:00:37,720 --> 00:00:40,678
Позиция робота -
в 100 метрах от базы.
8
00:00:40,840 --> 00:00:43,354
Давай, приятель,
пусть папочка гордится тобой.
9
00:00:44,840 --> 00:00:46,679
Робосапиен достиг
периметра базы.
10
00:00:46,680 --> 00:00:48,830
Время операции -
5 минут 52 секунды.
11
00:00:56,760 --> 00:00:57,950
ЦЕЛЬ ОБНАРУЖЕНА
12
00:01:00,640 --> 00:01:03,677
Орел-Один,
следуйте в ангар Альфа-Семь.
13
00:01:07,277 --> 00:01:09,877
ТЕПЛОВИЗОР
14
00:01:15,440 --> 00:01:17,556
Ой!
15
00:01:17,760 --> 00:01:18,910
Ты слышал?
16
00:01:20,400 --> 00:01:22,231
Что это было?
17
00:01:28,680 --> 00:01:30,113
... видел его лицо?
18
00:01:30,280 --> 00:01:32,630
Теперь он так поступать не будет.
Без вариантов.
19
00:01:40,200 --> 00:01:43,033
А?..
О-о!
20
00:01:43,200 --> 00:01:46,078
Не бойся!
К спасению готовься!

Скриншот c названием фильма

Скриншоты

Скачать

Скачать торрент!

Как скачивать? · Что такое торрент? · Рейтинг и ограничения

Сайт не распространяет и не хранит электронные версии произведений, а лишь предоставляет доступ к создаваемому пользователями каталогу ссылок на торрент-файлы, которые содержат только списки хеш-сумм

[Профиль] [ЛС]
Показать сообщения:    
Ответить на тему

Текущее время: Сегодня 05:53

Часовой пояс: GMT + 4



Вы не можете начинать темы
Вы не можете отвечать на сообщения
Вы не можете редактировать свои сообщения
Вы не можете удалять свои сообщения
Вы не можете голосовать в опросах
Вы не можете прикреплять файлы к сообщениям
Вы не можете скачивать файлы