Человек из стали / Man of Steel (Зак Снайдер / Zack Snyder) [2013, США, Канада, Великобритания, фантастика, фэнтези, боевик, приключения, BDRip] Dub

Ответить на тему
 
Автор Сообщение

user ®

Стаж: 7 лет 7 месяцев

Сообщений: 20008

Пост Пост: #1 от 21-Окт-2013 10:20

[Цитировать]

Человек из стали / Man of Steel
Год выпуска: 2013
Страна: США
Жанр: фантастика, фэнтези, боевик, приключения
Продолжительность: 02:23:03
Перевод: Профессиональный (полное дублирование)
Субтитры: нет
Режиссер: Зак Снайдер / Zack Snyder
В ролях: Генри Кавилл (Clark Kent /Kal-El), Эми Адамс (Lois Lane), Майкл Шеннон (General Zod), Рассел Кроу (Jor-El), Дайан Лэйн (Martha Kent), Кевин Костнер (Jonathan Kent), Антье Трауэ (Faora-Ul), Лоренс Фишбёрн (Perry White), Кристофер Мелони (Colonel Nathan Hardy), Гарри Дж. Ленникс (General Swanwick), Ричард Шифф (Dr. Emil Hamilton), Айелет Зурер (Lara Lor-Van)--Описание: Кларк Кент/Кал-Эл - молодой человек, который чувствует себя чужаком из-за своей невероятной силы. Много лет назад он был отправлен на Землю с развитой планеты Криптон, и теперь задается вопросом: зачем?
Воспитанный приемными родителями Мартой и Джонатаном Кентами, Кларк знает: обладать сверхспособностями - значит принимать сложные решения. Но когда человечество более всего нуждается в стабильности, оно подвергается нападению. Сможет ли герой восстановить мир, или воспользуется своей силой для того, чтобы окончательно его разрушить?
-[/url]Рейтинг
kinopoisk.ru: 7.348 (37 485)
imdb.com: 7.5 (248 242)
-Качество: BDRip
Формат: AVI //SAMPLE//
Видео: 720x304 (2.37:1), 23.976 fps, XviD build 65 ~1730 kbps avg, 0.33 bit/pixel
Аудио: 48 kHz, AC3 Dolby Digital, 3/2 (L,C,R,l,r) + LFE ch, ~448 kbps

MediaInfo

Общее
Полное имя : F:\Video\AVI\Films\Chelovek.Iz.Stali.2013.RUS.BDRip.XviD.AC3.-AllFilms.avi
Формат : AVI
Формат/Информация : Audio Video Interleave
Профиль формата : OpenDML
Размер файла : 2,18 Гбайт
Продолжительность : 2 ч. 23 м.
Общий поток : 2186 Кбит/сек
Название фильма : Человек из стали / Man of Steel (2013)
Режиссёр : Shevon (Blu-Ray Disk CEE)
Программа кодирования : VirtualDubMod 1.5.10.3 | www.virtualdub-fr.org || (build 2550/release)
Правообладатель : AllFilms
Видео
Идентификатор : 0
Формат : MPEG-4 Visual
Профиль формата : Advanced Simple@L5
Параметр BVOP формата : 1
Параметр QPel формата : Нет
Параметр GMC формата : Без точки перехода
Параметр матрицы формата : Выборочная
Идентификатор кодека : XVID
Идентификатор кодека/Подсказка : XviD
Продолжительность : 2 ч. 23 м.
Битрейт : 1726 Кбит/сек
Ширина : 720 пикселей
Высота : 304 пикселя
Соотношение сторон : 2,35:1
Частота кадров : 23,976 кадра/сек
Цветовое пространство : YUV
Субдискретизация насыщенности : 4:2:0
Битовая глубина : 8 бит
Тип развёртки : Прогрессивная
Метод сжатия : С потерями
Бит/(Пиксели*Кадры) : 0.329
Размер потока : 1,72 Гбайт (79%)
Библиотека кодирования : XviD 65
Аудио
Идентификатор : 1
Формат : AC-3
Формат/Информация : Audio Coding 3
Расширение режима : CM (complete main)
Параметр Endianness формата : Big
Идентификатор кодека : 2000
Продолжительность : 2 ч. 23 м.
Вид битрейта : Постоянный
Битрейт : 448 Кбит/сек
Каналы : 6 каналов
Расположение каналов : Front: L C R, Side: L R, LFE
Частота : 48,0 КГц
Битовая глубина : 16 бит
Метод сжатия : С потерями
Размер потока : 458 Мбайт (20%)
Выравнивание : Разделение по промежуткам
Продолжительность промежутка : 42 мс. (1,00 видеокадр)
Время предзагрузки промежутка : 500 мс.

Скриншоты

-
Скачать

Скачать торрент!

Как скачивать? · Что такое торрент? · Рейтинг и ограничения

Сайт не распространяет и не хранит электронные версии произведений, а лишь предоставляет доступ к создаваемому пользователями каталогу ссылок на торрент-файлы, которые содержат только списки хеш-сумм

[Профиль] [ЛС]
Показать сообщения:    
Ответить на тему

Текущее время: Сегодня 18:22

Часовой пояс: GMT + 4



Вы не можете начинать темы
Вы не можете отвечать на сообщения
Вы не можете редактировать свои сообщения
Вы не можете удалять свои сообщения
Вы не можете голосовать в опросах
Вы не можете прикреплять файлы к сообщениям
Вы не можете скачивать файлы