Хулиганы / Green Street Hooligans (Лекси Александр / Lexi Alexander) [2005, США, Великобритания, драма, криминал, спорт, BDRemux 1080p] 2x MVO + DVO + Original Eng + Sub Rus, Eng

Ответить на тему
 
Автор Сообщение

user ®

Стаж: 7 лет 7 месяцев

Сообщений: 20008

Пост Пост: #1 от 21-Окт-2013 02:30

[Цитировать]

ХулиганыGreen Street Hooligans«Stand Your Ground»- Страна: США, Великобритания
Жанр: драма, криминал, спорт
Год выпуска: 2005
Продолжительность: 01:48:52-Перевод 1: Профессиональный (двухголосый закадровый) - с нецензурной лексикой
Перевод 2: Профессиональный (многоголосый закадровый) [Tycoon-Studio]
Перевод 3: Профессиональный (многоголосый закадровый) [CP Digital]
Субтитры: русские (Tycoon-Studio), русские (CP Digital), английские
Оригинальная аудиодорожка: английский
Режиссер: Лекси Александр / Lexi Alexander
В ролях:
Элайджа Вуд, Чарли Ханнэм, Дэвид Александр, Оливер Эллисон, Джеймс Эллисон, Джоэль Бекетт, Джофф Белл, Киран Бью, Эндрю Блэр, Дэвид Карр-Описание: Студент факультета журналистики Мэтт Бакнер отчислен из Гарварда за преступление, которого он не совершал. Его многообещающая карьера пошла коту под хвост, его будущее выглядит суровым, и он в поисках убежища бежит в Лондон к своей замужней сестре Шэннон. Её муж Стив знакомит Мэтта со своим младшим братом Питом. Сдружившись с Питом, Мэтт открывает для себя мир футбольного фанатизма, а также узнаёт тайны и интриги футбольной фирмы. Пит Данхам и его верные друзья создали Элиту Зелёной улицы, группу ярых фанатов клуба Вэст-Хэм Юнайтед, одну из самых жестоких лондонских футбольных фирм... Здесь он находит новых друзей, новые неприятности и оказывается в компании безумных футбольных фанатов, готовых на алтарь своей страсти бросить любую жертву...-

MPAA: R - Лицам до 17 лет обязательно присутствие взрослого-Качество: BDRemux
Контейнер: MKV
Сэмпл
Видео: AVC, 1920x1080 (16:9), 17972 kbps, 23,976 fps, 0,361 bpp
Аудио №1: русский / AC3 / 5.1 / 48 kHz / 448 kbps / 16 bit |Многоголосый закадровый, Tycoon-Studio|
Аудио №2: русский / AC3 / 2.0 / 48 kHz / 192 kbps / 16 bit |Многоголосый закадровый, CP Digital|
Аудио №3: русский / DTS / 5.1 / 48 kHz / 1510 kbps / 24 bit |Двухголосый закадровый, с нецензурной лексикой|
Аудио №4: английский / DTS-HD / 5.1 / 48 kHz / 3510 kbps / 24 bit (Core: 5.1 / 48 kHz / 1510 kbps / 24 bit) |Оригинал|
Навигация по главам: есть-

Media Info

General
Unique ID : 177478883666067028253317286886607141463 (0x8585308D390CDCC89EB9A24A426FBA57)
Complete name : D:\GreenStreetHooligans.2005.BDRemux1080p.2xMVO.DVO.Orig.Subs.mkv
Format : Matroska
Format version : Version 4 / Version 2
File size : 16.8 GiB
Duration : 1h 48mn
Overall bit rate mode : Variable
Overall bit rate : 22.1 Mbps
Encoded date : UTC 2013-10-20 06:15:32
Writing application : mkvmerge v6.2.0 ('Promised Land') built on Apr 28 2013 12:22:01
Writing library : libebml v1.3.0 + libmatroska v1.4.0
Video
ID : 1
Format : AVC
Format/Info : Advanced Video Codec
Format profile : High@L4.1
Format settings, CABAC : Yes
Format settings, ReFrames : 4 frames
Codec ID : V_MPEG4/ISO/AVC
Duration : 1h 48mn
Bit rate mode : Variable
Maximum bit rate : 33.0 Mbps
Width : 1 920 pixels
Height : 1 080 pixels
Display aspect ratio : 16:9
Frame rate mode : Constant
Frame rate : 23.976 fps
Color space : YUV
Chroma subsampling : 4:2:0
Bit depth : 8 bits
Scan type : Progressive
Language : English
Default : Yes
Forced : No
Color primaries : BT.709
Transfer characteristics : BT.709
Matrix coefficients : BT.709
Audio #1
ID : 2
Format : AC-3
Format/Info : Audio Coding 3
Mode extension : CM (complete main)
Format settings, Endianness : Big
Codec ID : A_AC3
Duration : 1h 48mn
Bit rate mode : Constant
Bit rate : 192 Kbps
Channel count : 2 channels
Channel positions : Front: L R
Sampling rate : 48.0 KHz
Bit depth : 16 bits
Compression mode : Lossy
Stream size : 150 MiB (1%)
Title : MVO CP Digital
Language : Russian
Default : Yes
Forced : No
Audio #2
ID : 3
Format : AC-3
Format/Info : Audio Coding 3
Mode extension : CM (complete main)
Format settings, Endianness : Big
Codec ID : A_AC3
Duration : 1h 48mn
Bit rate mode : Constant
Bit rate : 448 Kbps
Channel count : 6 channels
Channel positions : Front: L C R, Side: L R, LFE
Sampling rate : 48.0 KHz
Bit depth : 16 bits
Compression mode : Lossy
Stream size : 349 MiB (2%)
Title : MVO Tycoon-Studio
Language : Russian
Default : No
Forced : No
Audio #3
ID : 4
Format : DTS
Format/Info : Digital Theater Systems
Mode : 16
Format settings, Endianness : Big
Codec ID : A_DTS
Duration : 1h 48mn
Bit rate mode : Constant
Bit rate : 1 510 Kbps
Channel count : 6 channels
Channel positions : Front: L C R, Side: L R, LFE
Sampling rate : 48.0 KHz
Bit depth : 24 bits
Compression mode : Lossy
Stream size : 1.15 GiB (7%)
Title : DVO (с нецензурной лексикой)
Language : Russian
Default : No
Forced : No
Audio #4
ID : 5
Format : DTS
Format/Info : Digital Theater Systems
Format profile : MA / Core
Mode : 16
Format settings, Endianness : Big
Codec ID : A_DTS
Duration : 1h 48mn
Bit rate mode : Variable
Bit rate : Unknown / 1 509 Kbps
Channel count : 6 channels
Channel positions : Front: L C R, Side: L R, LFE
Sampling rate : 48.0 KHz
Bit depth : 24 bits
Compression mode : Lossless / Lossy
Title : Orig
Language : English
Default : No
Forced : No
Text #1
ID : 6
Format : UTF-8
Codec ID : S_TEXT/UTF8
Codec ID/Info : UTF-8 Plain Text
Title : Tycoon-Studio
Language : Russian
Default : No
Forced : No
Text #2
ID : 7
Format : UTF-8
Codec ID : S_TEXT/UTF8
Codec ID/Info : UTF-8 Plain Text
Title : CP Digital
Language : Russian
Default : No
Forced : No
Text #3
ID : 8
Format : UTF-8
Codec ID : S_TEXT/UTF8
Codec ID/Info : UTF-8 Plain Text
Language : English
Default : No
Forced : No
Menu
00:00:00.000 : :Chapter 01
00:06:19.169 : :Chapter 02
00:14:31.787 : :Chapter 03
00:24:34.181 : :Chapter 04
00:33:27.588 : :Chapter 05
00:40:56.620 : :Chapter 06
00:49:09.362 : :Chapter 07
00:53:18.737 : :Chapter 08
00:59:54.841 : :Chapter 09
01:08:29.772 : :Chapter 10
01:14:58.827 : :Chapter 11
01:22:45.877 : :Chapter 12
01:30:20.164 : :Chapter 13
01:38:19.100 : :Chapter 14
01:42:38.152 : :Chapter 15
01:43:25.240 : :Chapter 16

Скриншоты






Скачать

Скачать торрент!

Как скачивать? · Что такое торрент? · Рейтинг и ограничения

Сайт не распространяет и не хранит электронные версии произведений, а лишь предоставляет доступ к создаваемому пользователями каталогу ссылок на торрент-файлы, которые содержат только списки хеш-сумм

[Профиль] [ЛС]
Показать сообщения:    
Ответить на тему

Текущее время: Сегодня 10:56

Часовой пояс: GMT + 4



Вы не можете начинать темы
Вы не можете отвечать на сообщения
Вы не можете редактировать свои сообщения
Вы не можете удалять свои сообщения
Вы не можете голосовать в опросах
Вы не можете прикреплять файлы к сообщениям
Вы не можете скачивать файлы