Гадкий я 2 / Despicable Me 2 (Пьер Соффин / Pierre Coffin, Крис Рено / Chris Renaud) [2013 г., США, мультфильм, фантастика, комедия, BDRip] Dub + Original + Sub (Rus, Eng)

Ответить на тему
 
Автор Сообщение

user ®

Стаж: 13 лет

Сообщений: 15041

Пост Пост: #1 от 20-Окт-2013 20:10

[Цитировать]

Гадкий я 2Despicable Me 2-«More minions. More despicable»- Год выпуска: 2013
Страна: США-Жанр: мультфильм, комедия, приключения, семейный
Продолжительность: 01:37:58
Перевод: Профессиональный (полное дублирование)
Субтитры: русские, английские-Режиссер: Пьер Соффин / Pierre Coffin, Крис Рено / Chris Renaud
Сценарий: Кен Даурио / Ken Daurio, Синко Пол / Cinco Paul
Продюсер: Джанет Хили / Janet Healy, Кристофер Меледандри / Christopher Meledandri
Композитор: Эйтор Перейра / Heitor Pereira, Фаррелл Уильямс / Pharrell Williams-В ролях: Стив Карелл (Gru, озвучка), Кристен Уиг (Lucy, озвучка), Бенджамин Брэтт (Eduardo, El Macho, озвучка), Миранда Косгров (Margo, озвучка), Расселл Брэнд (Dr. Nefario, озвучка), Кен Жонг (Floyd, озвучка), Стив Куган (Silas, озвучка), Элси Фишер (Agnes, озвучка), Дэна Гайер (Edith, озвучка), Мойзес Ариас (Antonio, озвучка), Назим Пэдрад (Jillian, озвучка), Кристен Шол (Shannon, озвучка)
Дублёры: Сергей Бурунов (Gru), Владимир Еремин (Eduardo, El Macho), Лиза Мартиросова (Margo), Диомид Виноградов (Floyd), Прохор Чеховской (Antonio), Иван Жарков (Arctic Lab Guard)-Описание: В то время как Грю, бывший суперзлодей, приспосабливается к семейной жизни и пытается честным трудом зарабатывать в сфере бизнеса, тайные лаборатории Арктики оказываются украденными. Анти-Злодейская лига решает, что она нуждается в помощи Грю и его новобранцев в расследовании.-kinopoisk.ru: 7.907 (25 753)
imdb.com: 7.70 (82 498)
MPAA: PG - Рекомендуется присутствие родителей-Качество: BDRip / DESPICABLE_ME_2_BD_BLUEBIRD
Контейнер: AVI
Видео: 720x384 (1.88:1), 23.976 fps, XviD MPEG-4 ~2279 kbps avg, 0.34 bit/pixel
Аудио I: 48 kHz, AC3 Dolby Digital, 3/2 (L,C,R,l,r) + LFE ch, ~448 kbps (Rus)
Аудио II: 48 kHz, AC3 Dolby Digital, 3/2 (L,C,R,l,r) + LFE ch, ~448 kbps (Eng)-

MediaInfo

General
Complete name                            : E:\Рипы\Despicable.me.2.BDRip.Dub.All.Films\Despicable.me.2.BDRip.Dub.All.Films.avi
Format                                   : AVI
Format/Info                              : Audio Video Interleave
Format profile                           : OpenDML
File size                                : 2.18 GiB
Duration                                 : 1h 37mn
Overall bit rate                         : 3 182 Kbps
Movie name                               : Despicable.me.2.BDRip.Dub.All.Films
Director                                 : DIABLO93
Genre                                    : Family
Writing application                      : VirtualDubMod 1.5.10.3 | www.virtualdub-fr.org || (build 2550/release)
Original source form/Name                : Movie
Copyright                                :
Video
ID                                       : 0
Format                                   : MPEG-4 Visual
Format profile                           : Advanced Simple@L5
Format settings, BVOP                    : 2
Format settings, QPel                    : No
Format settings, GMC                     : No warppoints
Format settings, Matrix                  : Custom
Codec ID                                 : XVID
Codec ID/Hint                            : XviD
Duration                                 : 1h 37mn
Bit rate                                 : 2 269 Kbps
Width                                    : 720 pixels
Height                                   : 384 pixels
Display aspect ratio                     : 1.85:1
Frame rate                               : 23.976 fps
Color space                              : YUV
Chroma subsampling                       : 4:2:0
Bit depth                                : 8 bits
Scan type                                : Progressive
Compression mode                         : Lossy
Bits/(Pixel*Frame)                       : 0.342
Stream size                              : 1.55 GiB (71%)
Writing library                          : XviD 65
Audio #1
ID                                       : 1
Format                                   : AC-3
Format/Info                              : Audio Coding 3
Mode extension                           : CM (complete main)
Format settings, Endianness              : Big
Codec ID                                 : 2000
Duration                                 : 1h 37mn
Bit rate mode                            : Constant
Bit rate                                 : 448 Kbps
Channel(s)                               : 6 channels
Channel positions                        : Front: L C R, Side: L R, LFE
Sampling rate                            : 48.0 KHz
Bit depth                                : 16 bits
Compression mode                         : Lossy
Stream size                              : 314 MiB (14%)
Alignment                                : Split accross interleaves
Interleave, duration                     : 42 ms (1.00 video frame)
Interleave, preload duration             : 500 ms
Audio #2
ID                                       : 2
Format                                   : AC-3
Format/Info                              : Audio Coding 3
Mode extension                           : CM (complete main)
Format settings, Endianness              : Big
Codec ID                                 : 2000
Duration                                 : 1h 37mn
Bit rate mode                            : Constant
Bit rate                                 : 448 Kbps
Channel(s)                               : 6 channels
Channel positions                        : Front: L C R, Side: L R, LFE
Sampling rate                            : 48.0 KHz
Bit depth                                : 16 bits
Compression mode                         : Lossy
Stream size                              : 314 MiB (14%)
Alignment                                : Split accross interleaves
Interleave, duration                     : 42 ms (1.00 video frame)
Interleave, preload duration             : 500 ms

-

Сэмпл

Скачать

Скриншоты

Скачать

Скачать торрент! Гадкий я 2 / Despicable Me 2 (Пьер Соффин / Pierre Coffin, Крис Рено / Chris Renaud) [2013 г., США, мультфильм, фантастика, комедия, BDRip] Dub + Original + Sub (Rus, Eng)

Как скачивать? · Что такое торрент? · Рейтинг и ограничения

Сайт не распространяет и не хранит электронные версии произведений, а лишь предоставляет доступ к создаваемому пользователями каталогу ссылок на торрент-файлы, которые содержат только списки хеш-сумм

[Профиль] [ЛС]
Показать сообщения:    
Ответить на тему

Текущее время: Сегодня 01:25

Часовой пояс: GMT + 4



Вы не можете начинать темы
Вы не можете отвечать на сообщения
Вы не можете редактировать свои сообщения
Вы не можете удалять свои сообщения
Вы не можете голосовать в опросах
Вы не можете прикреплять файлы к сообщениям
Вы не можете скачивать файлы