Гадкий я 2 / Despicable Me 2 (Пьер Соффин / Pierre Coffin, Крис Рено / Chris Renaud) [2013, США, Мультфильм, фантастика, комедия, криминал, приключения, семейный, BDRip] Dub (BD EUR) + Original (Eng) + Subs (Rus, Eng)

Ответить на тему
 
Автор Сообщение

user ®

Стаж: 13 лет

Сообщений: 15041

Пост Пост: #1 от 20-Окт-2013 20:10

[Цитировать]

-Гадкий я 2 / Despicable Me 2- Год выхода: 2013
Выпущено: США / Universal Pictures, Illumination Entertainment
Жанр: мультфильм, комедия, криминал, приключения, семейный
Продолжительность: 01:37:58
Перевод: Профессиональный (полное дублирование) BD EUR + Оригинальная дорожка
Субтитры: Русские (полные + форсированные), Английские (внешние .srt*)-Режиссер:
Пьер Соффин / Pierre Coffin, Крис Рено / Chris Renaud-В ролях:
Стив Карелл (Gru, озвучка), Кристен Уиг (Lucy, озвучка), Бенджамин Брэтт (Eduardo, El Macho, озвучка), Миранда Косгров (Margo, озвучка), Расселл Брэнд (Dr. Nefario, озвучка), Кен Жонг (Floyd, озвучка), Стив Куган (Silas, озвучка), Элси Фишер (Agnes, озвучка), Дэна Гайер (Edith, озвучка), Мойзес Ариас (Antonio)-О фильме:
В то время как Грю, бывший суперзлодей, приспосабливается к семейной жизни и пытается честным трудом зарабатывать в сфере бизнеса, тайные лаборатории Арктики оказываются украденными. Анти-Злодейская лига решает, что она нуждается в помощи Грю и его новобранцев в расследовании.-IMDB | КиноПоиск | Сэмпл |-Качество: BDRip [DESPICABLE_ME_2_BD_BLUEBIRD]
Формат: AVI
Видео: 720x384 (1.88:1), 23.976 fps, XviD build 73 ~1673 kbps avg, 0.25 bit/pixel
Аудио #1: 48 kHz, AC3 Dolby Digital, 3/2 (L,C,R,l,r) + LFE ch, ~448.00 kbps avg (RUS)
Аудио #2: 48 kHz, AC3 Dolby Digital, 3/2 (L,C,R,l,r) + LFE ch, ~448.00 kbps avg (ENG) отдельно
-

Скриншоты

MediaInfo

General
Complete name                            : D:\Gadkyi_Ya_2_2013_BDRip_by_Dalemake.avi
Format                                   : AVI
Format/Info                              : Audio Video Interleave
File size                                : 1.46 GiB
Duration                                 : 1h 37mn
Overall bit rate                         : 2 131 Kbps
Writing application                      : VirtualDubMod 1.5.10.3 | www.virtualdub-fr.org || (build 2550/release)
Writing library                          : VirtualDubMod build 2550/release
Video
ID                                       : 0
Format                                   : MPEG-4 Visual
Format profile                           : Advanced Simple@L5
Format settings, BVOP                    : 1
Format settings, QPel                    : No
Format settings, GMC                     : No warppoints
Format settings, Matrix                  : Custom
Codec ID                                 : XVID
Codec ID/Hint                            : XviD
Duration                                 : 1h 37mn
Bit rate                                 : 1 673 Kbps
Width                                    : 720 pixels
Height                                   : 384 pixels
Display aspect ratio                     : 1.85:1
Frame rate                               : 23.976 fps
Color space                              : YUV
Chroma subsampling                       : 4:2:0
Bit depth                                : 8 bits
Scan type                                : Progressive
Compression mode                         : Lossy
Bits/(Pixel*Frame)                       : 0.252
Stream size                              : 1.15 GiB (79%)
Writing library                          : XviD 73
Audio
ID                                       : 1
Format                                   : AC-3
Format/Info                              : Audio Coding 3
Mode extension                           : CM (complete main)
Format settings, Endianness              : Big
Codec ID                                 : 2000
Duration                                 : 1h 37mn
Bit rate mode                            : Constant
Bit rate                                 : 448 Kbps
Channel(s)                               : 6 channels
Channel positions                        : Front: L C R, Side: L R, LFE
Sampling rate                            : 48.0 KHz
Bit depth                                : 16 bits
Compression mode                         : Lossy
Stream size                              : 314 MiB (21%)
Alignment                                : Split accross interleaves
Interleave, duration                     : 42 ms (1.00 video frame)
Interleave, preload duration             : 500 ms
-
Скачать

Скачать торрент! Гадкий я 2 / Despicable Me 2 (Пьер Соффин / Pierre Coffin, Крис Рено / Chris Renaud) [2013, США, Мультфильм, фантастика, комедия, криминал, приключения, семейный, BDRip] Dub (BD EUR) + Original (Eng) + Subs (Rus, Eng)

Как скачивать? · Что такое торрент? · Рейтинг и ограничения

Сайт не распространяет и не хранит электронные версии произведений, а лишь предоставляет доступ к создаваемому пользователями каталогу ссылок на торрент-файлы, которые содержат только списки хеш-сумм

[Профиль] [ЛС]
Показать сообщения:    
Ответить на тему

Текущее время: Сегодня 22:26

Часовой пояс: GMT + 4



Вы не можете начинать темы
Вы не можете отвечать на сообщения
Вы не можете редактировать свои сообщения
Вы не можете удалять свои сообщения
Вы не можете голосовать в опросах
Вы не можете прикреплять файлы к сообщениям
Вы не можете скачивать файлы