Дети понедельника (Алла Сурикова) [1997, Комедия, мелодрама, HDTVRip]

Ответить на тему
 
Автор Сообщение

user ®

Стаж: 7 лет 7 месяцев

Сообщений: 20008

Пост Пост: #1 от 20-Окт-2013 20:10

[Цитировать]

Дети понедельника
Жанр: Комедия, мелодрама
Год выпуска: 1997
Продолжительность: 01:26:15
Режиссёр: Алла Сурикова
В ролях: Ирина Розанова, Игорь Скляр, Татьяна Догилева, Татьяна Кравченко, Виктор Павлов, Армен Джигарханян, Сергей Никоненко, Алексей Жарков
Описание: Легко ли быть живым трупом? Как потратить полмиллиона долларов? Можно ли влюбиться дважды в одну и ту же невесту?.. Дима Медякин не расплатился вовремя с кредиторами, которые в отместку решили его убить. Они взорвали его автомобиль, и, только благодаря счастливой случайности, Дима остался жив. Его жена, уставшая от совместной жизни, вывезла мужа в деревню, где бросила его, еще не протрезвевшего и не пришедшего в себя после выстрела газового пистолета. Приняла героя родная сестра жены Лида, которая когда-то была его невестой… Дмитрий по-новому увидел и оценил Лиду, проникся к ней симпатией и решил остаться, чтобы начать честную жизнь. Но в чемодане, брошенном бывшей супругой, он обнаружил не свои вещи, а полмиллиона долларов…
Качество видео: HDTVRip
Формат видео: AVI
Видео: XviD, 2068 Кбит/с, 720x416
Аудио: MP3, 2 ch, 192 Кбит/с

MediaInfo

Общее
Полное имя : F:\Видео\Дети понедельника.avi
Формат : AVI
Формат/Информация : Audio Video Interleave
Размер файла : 1,37 Гбайт
Продолжительность : 1 ч. 26 м.
Общий поток : 2270 Кбит/сек
Программа кодирования : VirtualDubMod 1.5.10.3 | www.virtualdub-fr.org || (build 2550/release)
Библиотека кодирования : VirtualDubMod build 2550/release
Видео
Идентификатор : 0
Формат : MPEG-4 Visual
Профиль формата : Advanced Simple@L5
Параметр BVOP формата : 1
Параметр QPel формата : Нет
Параметр GMC формата : Без точки перехода
Параметр матрицы формата : Выборочная
Идентификатор кодека : XVID
Идентификатор кодека/Подсказка : XviD
Продолжительность : 1 ч. 26 м.
Битрейт : 2068 Кбит/сек
Ширина : 720 пикселей
Высота : 416 пикселей
Соотношение сторон : 1,731
Частота кадров : 25,000 кадров/сек
Цветовое пространство : YUV
Субдискретизация насыщенности : 4:2:0
Битовая глубина : 8 бит
Тип развёртки : Прогрессивная
Метод сжатия : С потерями
Бит/(Пиксели*Кадры) : 0.276
Размер потока : 1,25 Гбайт (91%)
Библиотека кодирования : XviD 1.2.1 (UTC 2008-12-04)
Аудио
Идентификатор : 1
Формат : MPEG Audio
Версия формата : Version 1
Профиль формата : Layer 3
Идентификатор кодека : 55
Идентификатор кодека/Подсказка : MP3
Продолжительность : 1 ч. 26 м.
Вид битрейта : Постоянный
Битрейт : 192 Кбит/сек
Каналы : 2 канала
Частота : 48,0 КГц
Метод сжатия : С потерями
Размер потока : 118 Мбайт (8%)
Выравнивание : Соединение по промежуткам
Продолжительность промежутка : 40 мс. (1,00 видеокадр)
Время предзагрузки промежутка : 504 мс.
Библиотека кодирования : LAME3.99r
Настройки программы : -m s -V 4 -q 0 -lowpass 18.6 -b 192

Скриншот c названием фильма

Скриншоты

Скачать

Скачать торрент!

Как скачивать? · Что такое торрент? · Рейтинг и ограничения

Сайт не распространяет и не хранит электронные версии произведений, а лишь предоставляет доступ к создаваемому пользователями каталогу ссылок на торрент-файлы, которые содержат только списки хеш-сумм

[Профиль] [ЛС]
Показать сообщения:    
Ответить на тему

Текущее время: Сегодня 02:27

Часовой пояс: GMT + 4



Вы не можете начинать темы
Вы не можете отвечать на сообщения
Вы не можете редактировать свои сообщения
Вы не можете удалять свои сообщения
Вы не можете голосовать в опросах
Вы не можете прикреплять файлы к сообщениям
Вы не можете скачивать файлы