Призрачный патруль / R.I.P.D. (Роберт Швентке / Robert Schwentke) [2013 г., США, фэнтези, боевик, комедия, BDRip] Dub + Original + Sub (Rus, Eng)

Ответить на тему
 
Автор Сообщение

user ®

Стаж: 7 лет 7 месяцев

Сообщений: 20008

Пост Пост: #1 от 20-Окт-2013 20:10

[Цитировать]

Призрачный патрульR.I.P.D.-«Они защищают наш мир от гостей с того света»- Год выпуска: 2013
Страна: США-Жанр: фэнтези, боевик, комедия, криминал
Продолжительность: 01:35:55
Перевод: Профессиональный (полное дублирование) (iTunes)
Субтитры: русские, английские-Режиссер: Роберт Швентке / Robert Schwentke
Сценарий: Фил Хэй / Phil Hay, Мэтт Манфреди / Matt Manfredi, Питер М. Ленков / Peter M. Lenkov, Дэвид Добкин / David Dobkin
Продюсер: Майкл Фоттрел / Michael Fottrell, Нил Х. Мориц / Neal H. Moritz, Майк Ричардсон / Mike Richardson, Дэвид Добкин / David Dobkin, Кит Голдберг / Keith Goldberg
Оператор: Альвин Х. Кюхлер / Alwin H. Kuchler
Композитор: Кристоф Бек / Christophe Beck-В ролях: Джефф Бриджес (Roy), Райан Рейнольдс (Nick), Кевин Бейкон (Hayes), Мэри-Луиз Паркер (Proctor), Стефани Зостак (Julia), Джеймс Хонг (Nick's Avatar), Мариса Миллер (Roy's Avatar), Роберт Неппер (Stanley Nawlicki), Майк О’Мэлли (Elliot), Девин Рэтрей (Pulaski), Ларри Джо Кэмпбелл (Officer Murphy), Майкл Кунс (Detective in Locker Room)
Дублёры: Владимир Антоник (Roy), Пётр Иващенко (Nick), Владимир Зайцев (Hayes), Диомид Виноградов (Nick's Avatar), Сергей Чихачев (Elliot), Александр Носков, Константин Карасик, Марьяна Спивак, Полина Щербакова-Описание: Детективы из загробного департамента расследуют преступления по ту сторону могилы и гоняются за не в меру ретивой нечистью. Молодой коп, после гибели от руки неизвестного злоумышленника угодивший в мир иной, в обмен на помощь при расследовании собственного убийства обязуется следующие сто лет посвятить службе в R.I.P.D. и, получив в напарники брутального стрелка эпохи вестернов, выходит на борьбу с неупокоившимся злом.-kinopoisk.ru: 6.450 (25 207)
imdb.com: 5.40 (25 164)
MPAA: PG-13 - Детям до 13 лет просмотр не желателен-После выхода лицензии рип будет перезалит-Качество: BDRip / R.I.P.D._2013_REMUX_HDCLUB
Контейнер: AVI
Видео: 720x304 (2.37:1), 23.976 fps, XviD MPEG-4 ~2348 kbps avg, 0.45 bit/pixel
Аудио I: 48 kHz, AC3 Dolby Digital, 3/2 (L,C,R,l,r) + LFE ch, ~384 kbps (Rus)
Аудио II: 48 kHz, AC3 Dolby Digital, 3/2 (L,C,R,l,r) + LFE ch, ~448 kbps (Eng)-
-

MediaInfo

General
Format                                   : AVI
Format/Info                              : Audio Video Interleave
Format profile                           : OpenDML
File size                                : 2.14 GiB
Duration                                 : 1h 35mn
Overall bit rate                         : 3 187 Kbps
Writing application                      : VirtualDubMod 1.5.10.3 | www.virtualdub-fr.org || (build 2550/release)
Writing library                          : VirtualDubMod build 2550/release
Video
ID                                       : 0
Format                                   : MPEG-4 Visual
Format profile                           : Advanced Simple@L5
Format settings, BVOP                    : 2
Format settings, QPel                    : No
Format settings, GMC                     : No warppoints
Format settings, Matrix                  : Custom
Codec ID                                 : XVID
Codec ID/Hint                            : XviD
Duration                                 : 1h 35mn
Bit rate                                 : 2 338 Kbps
Width                                    : 720 pixels
Height                                   : 304 pixels
Display aspect ratio                     : 2.35:1
Frame rate                               : 23.976 fps
Color space                              : YUV
Chroma subsampling                       : 4:2:0
Bit depth                                : 8 bits
Scan type                                : Progressive
Compression mode                         : Lossy
Bits/(Pixel*Frame)                       : 0.445
Stream size                              : 1.57 GiB (73%)
Writing library                          : XviD 65
Audio #1
ID                                       : 1
Format                                   : AC-3
Format/Info                              : Audio Coding 3
Mode extension                           : CM (complete main)
Format settings, Endianness              : Big
Codec ID                                 : 2000
Duration                                 : 1h 35mn
Bit rate mode                            : Constant
Bit rate                                 : 384 Kbps
Channel(s)                               : 6 channels
Channel positions                        : Front: L C R, Side: L R, LFE
Sampling rate                            : 48.0 KHz
Bit depth                                : 16 bits
Compression mode                         : Lossy
Stream size                              : 263 MiB (12%)
Interleave, duration                     : 42 ms (1.00 video frame)
Interleave, preload duration             : 500 ms
Audio #2
ID                                       : 2
Format                                   : AC-3
Format/Info                              : Audio Coding 3
Mode extension                           : CM (complete main)
Format settings, Endianness              : Big
Codec ID                                 : 2000
Duration                                 : 1h 35mn
Bit rate mode                            : Constant
Bit rate                                 : 448 Kbps
Channel(s)                               : 6 channels
Channel positions                        : Front: L C R, Side: L R, LFE
Sampling rate                            : 48.0 KHz
Bit depth                                : 16 bits
Compression mode                         : Lossy
Stream size                              : 307 MiB (14%)
Interleave, duration                     : 42 ms (1.00 video frame)
Interleave, preload duration             : 500 ms

-

Сэмпл

Скачать

Скриншоты

Скачать

Скачать торрент!

Как скачивать? · Что такое торрент? · Рейтинг и ограничения

Сайт не распространяет и не хранит электронные версии произведений, а лишь предоставляет доступ к создаваемому пользователями каталогу ссылок на торрент-файлы, которые содержат только списки хеш-сумм

[Профиль] [ЛС]
Показать сообщения:    
Ответить на тему

Текущее время: Сегодня 23:40

Часовой пояс: GMT + 4



Вы не можете начинать темы
Вы не можете отвечать на сообщения
Вы не можете редактировать свои сообщения
Вы не можете удалять свои сообщения
Вы не можете голосовать в опросах
Вы не можете прикреплять файлы к сообщениям
Вы не можете скачивать файлы