Я не могу тебя забыть / Возвращение в прошлое / Tumko Na Bhool Paayenge (Панкадж Парашар / Pankaj Parashar) [2002, Индия, мюзикл, боевик, драма, детектив, DVDRip] DVOх2

Ответить на тему
 
Автор Сообщение

user ®

Стаж: 12 лет

Сообщений: 15092

Пост Пост: #1 от 20-Окт-2013 17:00

[Цитировать]

Я не могу тебя забыть / Возвращение в прошлое / Tumko Na Bhool Paayenge
Страна: Индия
Жанр: мюзикл, боевик, драма, детектив
Год выпуска: 2002
Продолжительность: 02:44:48
Перевод 1: Профессиональный (двухголосый закадровый) Формат АВ
Перевод 2: Профессиональный (двухголосый закадровый)
Cубтитры: нет
Режиссер: Панкадж Парашар /Pankaj Parashar
В ролях: Салман Кхан, Сушмита Сен, Дия Мирза, Шарат Саксена, Панкадж Дхир, Мукеш Риши, Гажендра Чухан, Анджан Шривастава, Алок Нат, Разак Кхан, Раджпал Ядав, Сумит Патхак, Нишигандха Вад
Описание: До поры до времени Вир не догадывается, что его уже в зрелом возрасте усыновил помещик. После тяжелого ранения Вир потерял память и не знает, кто он есть на самом деле и кем был в прежней жизни. Чтобы выяснить это, Вир возвращается в Бомбей, где родился и вырос и, где осталась его первая любовь Мэхэк…

Качество видео: DVDRip
Формат видео: AVI
Видео: 704x288 (2.44:1), 23.976 fps, XviD, 1508 kbps, 0.31 bit/pixel
Аудио 1: 48 kHz, AC3 Dolby Digital, 2/0 (L,R) ch, 192 kbps, DVO (Формат АВ)
Аудио 2: 48 kHz, AC3 Dolby Digital, 2/0 (L,R) ch, 192 kbps, DVO

MediaInfo

General
Complete name : E:\Раздачи\Ya_ne_mogu_tebya_zabyt_2.18_by_max1wq.avi
Format : AVI
Format/Info : Audio Video Interleave
Format profile : OpenDML
File size : 2.19 GiB
Duration : 2h 44mn
Overall bit rate : 1 899 Kbps
Writing application : VirtualDubMod 1.5.10.2 (build 2540/release)
Writing library : VirtualDubMod build 2540/release
Video
ID : 0
Format : MPEG-4 Visual
Format profile : Advanced Simple@L5
Format settings, BVOP : 1
Format settings, QPel : No
Format settings, GMC : No warppoints
Format settings, Matrix : Custom
Codec ID : XVID
Codec ID/Hint : XviD
Duration : 2h 44mn
Bit rate : 1 497 Kbps
Width : 704 pixels
Height : 288 pixels
Display aspect ratio : 2.40:1
Frame rate : 23.976 fps
Color space : YUV
Chroma subsampling : 4:2:0
Bit depth : 8 bits
Scan type : Progressive
Compression mode : Lossy
Bits/(Pixel*Frame) : 0.308
Stream size : 1.72 GiB (79%)
Writing library : XviD 65
Audio #1
ID : 1
Format : AC-3
Format/Info : Audio Coding 3
Mode extension : CM (complete main)
Format settings, Endianness : Big
Codec ID : 2000
Duration : 2h 44mn
Bit rate mode : Constant
Bit rate : 192 Kbps
Channel(s) : 2 channels
Channel positions : Front: L R
Sampling rate : 48.0 KHz
Bit depth : 16 bits
Compression mode : Lossy
Stream size : 226 MiB (10%)
Alignment : Split accross interleaves
Interleave, duration : 42 ms (1.00 video frame)
Interleave, preload duration : 500 ms
Audio #2
ID : 2
Format : AC-3
Format/Info : Audio Coding 3
Mode extension : CM (complete main)
Format settings, Endianness : Big
Codec ID : 2000
Duration : 2h 44mn
Bit rate mode : Constant
Bit rate : 192 Kbps
Channel(s) : 2 channels
Channel positions : Front: L R
Sampling rate : 48.0 KHz
Bit depth : 16 bits
Compression mode : Lossy
Stream size : 226 MiB (10%)
Alignment : Split accross interleaves
Interleave, duration : 42 ms (1.00 video frame)
Interleave, preload duration : 500 ms

Скриншоты



Рецензия от mirtly

Как по мне, очень хорошее качественное кино. Конечно, его вряд ли будешь пересматривать много-много раз, но несколько раз — можно точно.
Вир — единственный сын богатого индийского помещика, у него есть девушка (кстати, тут я впервые увидела Дию Мирзу, очень красивая актриса, надо заметить), на которой он собирается жениться. Но с ним происходят странные вещи: ему постоянно что-то мерещится, он замечает за собой способности, о которых не ведал и делает вещи, которым не обучался. После определенных событий выясняется, что он и не сын вовсе своему «отцу», а тот усыновил его уже в зрелом возрасте, найдя и выходив после тяжелых ранений. И Вир отправляется в Бомбей выяснить, кто же он такой. Приключения героя Салмана интересны, к нему постепенно возвращается память и зритель вместе с ним собирает все частички мозаики воедино. Выясняется, что он не только тот, за кого себя считал, но и имел целую другую жизнь, где у него была семья, другая девушка, друзья.
В общем-то фильм без особых завихрений в сюжете, хотя есть здесь что-то от фильмов 90-х, когда выясняется, что кто-то кого-то усыновил. В фильме очень хороший саундтрек и, что мне запомнилось особо, момент намаза Вира, здесь Салман проявляет свою истинную религию. Как по мне очень красивый эпизод, хоть и омраченный грустными событиями.
Фильм не затянутый, смотрится живо. Полюбилась Дия Мирза, начиная с этого фильма, у неё была очень интересная героиня, правда, я не смогла уловить, кого же она напоминает мне по характеру из героинь европейской классической прозы.
Фильм рекомендую.
Скачать

Скачать торрент! Я не могу тебя забыть / Возвращение в прошлое / Tumko Na Bhool Paayenge (Панкадж Парашар / Pankaj Parashar) [2002, Индия, мюзикл, боевик, драма, детектив, DVDRip] DVOх2

Как скачивать? · Что такое торрент? · Рейтинг и ограничения

Сайт не распространяет и не хранит электронные версии произведений, а лишь предоставляет доступ к создаваемому пользователями каталогу ссылок на торрент-файлы, которые содержат только списки хеш-сумм

[Профиль] [ЛС]
Показать сообщения:    
Ответить на тему

Текущее время: Сегодня 18:21

Часовой пояс: GMT + 4



Вы не можете начинать темы
Вы не можете отвечать на сообщения
Вы не можете редактировать свои сообщения
Вы не можете удалять свои сообщения
Вы не можете голосовать в опросах
Вы не можете прикреплять файлы к сообщениям
Вы не можете скачивать файлы