ЗЛО 2 / V/H/S/2 (Саймон Баррет / Simon Barrett, Джейсон Айзенер / Jason Eisener, Гарет Эванс / Gareth Evans) [2013, США, Канада, Индонезия, ужасы, триллер, HDRip] Dub (лицензия)

Ответить на тему
 
Автор Сообщение

user ®

Стаж: 7 лет 7 месяцев

Сообщений: 20008

Пост Пост: #1 от 20-Окт-2013 17:00

[Цитировать]

ЗЛО 2 / V/H/S/2
Страна: США, Канада, Индонезия
Жанр: ужасы, триллер
Год выпуска: 2013
Продолжительность: 01:35:42
Перевод: Профессиональный (дублированный) лицензия
Cубтитры: нет
Оригинальная аудиодорожка: нет
Режиссер: Саймон Баррет / Simon Barrett, Джейсон Айзенер / Jason Eisener, Гарет Эванс / Gareth Evans
В ролях: Келси Эбботт, Ханна Аль, Рашид Фахри, Албар Ока, Антара Девон, Мари Берт, Саманта Грейси, Коллинз Холт, Ханна Хьюз, Кевин Хант, Эпи Куснандар
Описание: В поисках пропавшего студента, пара частных детективов вламывается в его дом, где они находят коллекцию кассет VHS. Обнаружив ужасающие кадры на каждой из них, они понимают, что за исчезновением студента кроются страшные мотивы…
Сэмпл: http://multi-up.com/914971
Качество видео: HDRip (исходник не известен)
Формат видео: AVI
Видео: Xvid 720x400 23.98fps 1 916 Kbps
Аудио: Dolby AC3 48000Hz 6ch 256kbps

MediaInfo

Format : AVI
Format/Info : Audio Video Interleave
File size : 1.46 GiB
Duration : 1h 35mn
Overall bit rate : 2 181 Kbps
Writing application : VirtualDubMod 1.5.10.2 (build 2540/release)
Writing library : VirtualDubMod build 2540/release
Video
ID : 0
Format : MPEG-4 Visual
Format profile : Advanced Simple@L5
Format settings, BVOP : Yes
Format settings, QPel : No
Format settings, GMC : No warppoints
Format settings, Matrix : Default (MPEG)
Codec ID : XVID
Codec ID/Hint : XviD
Duration : 1h 35mn
Bit rate : 1 916 Kbps
Width : 720 pixels
Height : 400 pixels
Display aspect ratio : 16:9
Frame rate : 23.976 fps
Resolution : 8 bits
Colorimetry : 4:2:0
Scan type : Progressive
Bits/(Pixel*Frame) : 0.277
Stream size : 1.28 GiB (88%)
Writing library : XviD 1.2.1 (UTC 2008-12-04)
Audio
ID : 1
Format : AC-3
Format/Info : Audio Coding 3
Codec ID : 2000
Duration : 1h 35mn
Bit rate mode : Constant
Bit rate : 256 Kbps
Channel(s) : 6 channels
Channel positions : Front: L C R, Surround: L R, LFE
Sampling rate : 48.0 KHz
Stream size : 175 MiB (12%)
Alignment : Split accross interleaves
Interleave, duration : 42 ms (1.00 video frame)
Interleave, preload duration : 500 ms

Скриншот c названием фильма

Скриншоты

Скачать

Скачать торрент!

Как скачивать? · Что такое торрент? · Рейтинг и ограничения

Сайт не распространяет и не хранит электронные версии произведений, а лишь предоставляет доступ к создаваемому пользователями каталогу ссылок на торрент-файлы, которые содержат только списки хеш-сумм

[Профиль] [ЛС]
Показать сообщения:    
Ответить на тему

Текущее время: Сегодня 15:38

Часовой пояс: GMT + 4



Вы не можете начинать темы
Вы не можете отвечать на сообщения
Вы не можете редактировать свои сообщения
Вы не можете удалять свои сообщения
Вы не можете голосовать в опросах
Вы не можете прикреплять файлы к сообщениям
Вы не можете скачивать файлы