ЗЛО 2 / V/H/S/2 (Саймон Баррет / Simon Barrett, Джейсон Айзенер / Jason Eisener, Гарет Эванс / Gareth Evans) [2013, США, Канада, Индонезия, ужасы, триллер, HDRip] Dub (лицензия)

Ответить на тему
 
Автор Сообщение

user ®

Стаж: 7 лет 7 месяцев

Сообщений: 20008

Пост Пост: #1 от 20-Окт-2013 17:00

[Цитировать]

ЗЛО 2 / V/H/S/2
Страна: США, Канада, Индонезия
Жанр: ужасы, триллер
Год выпуска: 2013
Продолжительность: 01:35:42
Перевод: Профессиональный (дублированный) лицензия
Cубтитры: нет
Оригинальная аудиодорожка: нет
Режиссер: Саймон Баррет / Simon Barrett, Джейсон Айзенер / Jason Eisener, Гарет Эванс / Gareth Evans
В ролях: Келси Эбботт, Ханна Аль, Рашид Фахри, Албар Ока, Антара Девон, Мари Берт, Саманта Грейси, Коллинз Холт, Ханна Хьюз, Кевин Хант, Эпи Куснандар
Описание: В поисках пропавшего студента, пара частных детективов вламывается в его дом, где они находят коллекцию кассет VHS. Обнаружив ужасающие кадры на каждой из них, они понимают, что за исчезновением студента кроются страшные мотивы…
Сэмпл: http://multi-up.com/914977
Качество видео: HDRip (исходник не известен)
Формат видео: AVI
Видео: Xvid 640x356 23.98fps 880 Kbps
Аудио: MPEG Audio Layer 3 44100Hz stereo 128kbps

MediaInfo

Format : AVI
Format/Info : Audio Video Interleave
File size : 698 MiB
Duration : 1h 35mn
Overall bit rate : 1 020 Kbps
Writing application : Lavf51.12.1
Video
Format : xvid
Codec ID : xvid
Duration : 1h 35mn
Bit rate : 880 Kbps
Width : 640 pixels
Height : 356 pixels
Display aspect ratio : 16:9
Frame rate : 23.976 fps
Bits/(Pixel*Frame) : 0.161
Stream size : 602 MiB (86%)
Audio
ID : 1
Format : MPEG Audio
Format version : Version 1
Format profile : Layer 3
Format_Settings_Mode : Joint stereo
Format_Settings_ModeExtension : MS Stereo
Codec ID : 55
Codec ID/Hint : MP3
Duration : 1h 35mn
Bit rate mode : Constant
Bit rate : 128 Kbps
Channel(s) : 2 channels
Sampling rate : 44.1 KHz
Stream size : 87.6 MiB (13%)
Alignment : Aligned on interleaves
Interleave, duration : 26 ms (0.63 video frame)
Interleave, preload duration : 26 ms

Скриншот c названием фильма

Скриншоты

Скачать

Скачать торрент!

Как скачивать? · Что такое торрент? · Рейтинг и ограничения

Сайт не распространяет и не хранит электронные версии произведений, а лишь предоставляет доступ к создаваемому пользователями каталогу ссылок на торрент-файлы, которые содержат только списки хеш-сумм

[Профиль] [ЛС]
Показать сообщения:    
Ответить на тему

Текущее время: Сегодня 02:19

Часовой пояс: GMT + 4



Вы не можете начинать темы
Вы не можете отвечать на сообщения
Вы не можете редактировать свои сообщения
Вы не можете удалять свои сообщения
Вы не можете голосовать в опросах
Вы не можете прикреплять файлы к сообщениям
Вы не можете скачивать файлы