Пропавший медальон / The Lost Medallion: The Adventures of Billy Stone (Билл Мьюир / Bill Muir) [2013, Таиланд, приключения, семейный, HDRip-AVC] VO + Original Eng + Sub (Eng + Ru)

Ответить на тему
 
Автор Сообщение

user ®

Стаж: 7 лет 7 месяцев

Сообщений: 20008

Пост Пост: #1 от 20-Окт-2013 17:00

[Цитировать]

Пропавший медальон / The Lost Medallion: The Adventures of Billy Stone
Страна: Таиланд
Жанр: приключения, семейный
Год выпуска: 2013
Продолжительность: 01:38:10
Перевод: Одноголосый закадровый [RiD]
Cубтитры: английские, русские
Оригинальная аудиодорожка: английский-Режиссер: Билл Мьюир / Bill Muir
В ролях: Билли Ангер, Сэмми Ханратти, Джеймс Хонг, Джэнсен Панеттьер, Уильям Коркери, Алекс Кендрик, Марк Дакаскос, Лиза ЛоЦицеро, Хэл Рубник, Сидни С. Лиуфау-Описание: Археолог Майкл Стоун искал утерянный медальон всю свою жизнь. Теперь уже его сын Билли продолжает эти поиски. Однажды Билли улыбнулась удача, и заветный медальон оказывается у него в руках. Вместе со своим лучшим другом Олли, поддавшись спонтанному желанию, они неожиданно попадают назад на 200 лет…-Русские субтитры: Алексей Крылов aka rrrtttsss aka prostotak

-Качество видео: [url=http://***/forum/viewtopic.php?t=4565334]HDRip-AVC[/url]
Формат видео: MKV
Видео: MPEG4, 1072x448 (2,40:1), 23,9 fps, ~2389 kbps avg, 0.20 bit/pixel
Аудио: 48 kHz, AC3 Dolby Digital, 5 ch, ~384 kbps Ru
Аудио 2: 48 kHz, AC3 Dolby Digital, 5 ch, ~384 kbps En
Формат субтитров: softsub (SRT)

MediaInfo

Общее
Уникальный идентификатор : 253125646248423820645409572345194171478 (0xBE6E39E6F26C3524BEC2E3C7DF934C56)
Полное имя : E:\The Lost Medallion.The Adventures of Billy Stone.2013.mkv
Формат : Matroska
Версия формата : Version 4 / Version 2
Размер файла : 2,17 Гбайт
Продолжительность : 1 ч. 38 м.
Общий поток : 3159 Кбит/сек
Дата кодирования : UTC 2013-10-20 07:52:37
Программа кодирования : mkvmerge v6.3.0 ('You can't stop me!') built on Jun 28 2013 20:09:41
Библиотека кодирования : libebml v1.3.0 + libmatroska v1.4.0
Видео
Идентификатор : 1
Формат : AVC
Формат/Информация : Advanced Video Codec
Профиль формата : High@L3.1
Параметр CABAC формата : Да
Параметр ReFrames формата : 7 кадров
Идентификатор кодека : V_MPEG4/ISO/AVC
Продолжительность : 1 ч. 38 м.
Битрейт : 2389 Кбит/сек
Ширина : 1072 пикселя
Высота : 448 пикселей
Соотношение сторон : 2,40:1
Режим частоты кадров : Постоянный
Частота кадров : 23,976 кадра/сек
Цветовое пространство : YUV
Субдискретизация насыщенности : 4:2:0
Битовая глубина : 8 бит
Тип развёртки : Прогрессивная
Бит/(Пиксели*Кадры) : 0.207
Размер потока : 1,60 Гбайт (74%)
Библиотека кодирования : x264 core 133 r2334 a3ac64b
Настройки программы : cabac=1 / ref=7 / deblock=1:-3:-3 / analyse=0x3:0x133 / me=umh / subme=9 / psy=1 / psy_rd=1.00:0.10 / mixed_ref=1 / me_range=32 / chroma_me=1 / trellis=2 / 8x8dct=1 / cqm=0 / deadzone=21,11 / fast_pskip=1 / chroma_qp_offset=-3 / threads=6 / lookahead_threads=1 / sliced_threads=0 / nr=0 / decimate=1 / interlaced=0 / bluray_compat=0 / constrained_intra=0 / bframes=8 / b_pyramid=2 / b_adapt=2 / b_bias=0 / direct=3 / weightb=1 / open_gop=0 / weightp=2 / keyint=240 / keyint_min=22 / scenecut=40 / intra_refresh=0 / rc_lookahead=60 / rc=2pass / mbtree=1 / bitrate=2389 / ratetol=1.0 / qcomp=0.60 / qpmin=10 / qpmax=51 / qpstep=4 / cplxblur=20.0 / qblur=0.5 / ip_ratio=1.40 / aq=1:1.00
Язык : English
Default : Да
Forced : Нет
Аудио #1
Идентификатор : 2
Формат : AC-3
Формат/Информация : Audio Coding 3
Расширение режима : CM (complete main)
Параметр Endianness формата : Big
Идентификатор кодека : A_AC3
Продолжительность : 1 ч. 38 м.
Вид битрейта : Постоянный
Битрейт : 384 Кбит/сек
Каналы : 5 каналов
Расположение каналов : Front: L C R, Side: L R
Частота : 48,0 КГц
Битовая глубина : 16 бит
Метод сжатия : С потерями
Размер потока : 270 Мбайт (12%)
Default : Да
Forced : Нет
Аудио #2
Идентификатор : 3
Формат : AC-3
Формат/Информация : Audio Coding 3
Расширение режима : CM (complete main)
Параметр Endianness формата : Big
Идентификатор кодека : A_AC3
Продолжительность : 1 ч. 38 м.
Вид битрейта : Постоянный
Битрейт : 384 Кбит/сек
Каналы : 5 каналов
Расположение каналов : Front: L C R, Side: L R
Частота : 48,0 КГц
Битовая глубина : 16 бит
Метод сжатия : С потерями
Размер потока : 270 Мбайт (12%)
Default : Нет
Forced : Нет
Текст #1
Идентификатор : 4
Формат : UTF-8
Идентификатор кодека : S_TEXT/UTF8
Идентификатор кодека/Информация : UTF-8 Plain Text
Default : Да
Forced : Нет
Текст #2
Идентификатор : 5
Формат : UTF-8
Идентификатор кодека : S_TEXT/UTF8
Идентификатор кодека/Информация : UTF-8 Plain Text
Default : Нет
Forced : Нет

Скриншоты

Скачать

Скачать торрент!

Как скачивать? · Что такое торрент? · Рейтинг и ограничения

Сайт не распространяет и не хранит электронные версии произведений, а лишь предоставляет доступ к создаваемому пользователями каталогу ссылок на торрент-файлы, которые содержат только списки хеш-сумм

[Профиль] [ЛС]
Показать сообщения:    
Ответить на тему

Текущее время: Сегодня 11:44

Часовой пояс: GMT + 4



Вы не можете начинать темы
Вы не можете отвечать на сообщения
Вы не можете редактировать свои сообщения
Вы не можете удалять свои сообщения
Вы не можете голосовать в опросах
Вы не можете прикреплять файлы к сообщениям
Вы не можете скачивать файлы