Мелодия любви / Taraana (Дипак Бехри / Deepak Bahry) [1979, Индия, Мелодрама, DVDRip] VO

Ответить на тему
 
Автор Сообщение

user ®

Стаж: 12 лет

Сообщений: 15092

Пост Пост: #1 от 20-Окт-2013 08:55

[Цитировать]

Мелодия любви / Taraana
-Страна: Индия
Жанр: Мелодрама
Год выпуска: 1979
Продолжительность: 01:51:48-Язык: Хинди
Перевод: Одноголосый закадровый
Cубтитры: Нет-Режиссер: Дипак Бехри / Deepak Bahry-В ролях: Митхун Чакраборти, Ранджита, Джаяшри, Др.Шрирам Лагу, Урмила Бхатт, Ом Шивпури, Джагдип, Шарад Саксена, Бхагван-Описание: В красивой долине Кашмира расцвела любовь между бедной цыганкой Радхой и Шьямом, единственным сыном богачей.
Ради счастья дочери отец Радхи идет к отцу Шьяма. Но богатый Тхакур отверг его предложение и с позором выгнал из дома, не зная, что эта цыганка на самом деле его родная дочь, потерянная в далеком прошлом...-- | Кинопоиск--Качество видео: DVDRip
Исходник: DVD5 R1
Формат видео: AVI-Видео: XVID, 720x336, 25 fps, 1636 Kbps
Аудио: MP3, 48 kHz, 2.0 stereo, 128 Kbps
Доп.информация: рассинхрон устранен--Риппер, синхронизация звука: soso4eg-Спасибо veronika83 за DVD5 без перевода =)
Спасибо Оксане за исходную звук. дорожку =)
-- -
-

Скриншоты


-

MI

Общее
Полное имя : C:\INDIYA\[Релизы]\Melodiya.Lubvi.1979.DVDRip.XviD-soso4eg.avi
Формат : AVI
Формат/Информация : Audio Video Interleave
Размер файла : 1,45 Гбайт
Продолжительность : 1 ч. 57 м.
Общий поток : 1767 Кбит/сек
Название фильма : Melodiya.Lubvi.1979.DVDRip.XviD-soso4eg
Режиссёр : soso4eg
Программа кодирования : VirtualDubMod 1.5.10.3 | www.virtualdub-fr.org || (build 2550/release)
Правообладатель :
Видео
Идентификатор : 0
Формат : MPEG-4 Visual
Профиль формата : Advanced Simple@L5
Параметр BVOP формата : 2
Параметр QPel формата : Нет
Параметр GMC формата : Без точки перехода
Параметр матрицы формата : Default (H.263)
Идентификатор кодека : XVID
Идентификатор кодека/Подсказка : XviD
Продолжительность : 1 ч. 57 м.
Битрейт : 1636 Кбит/сек
Ширина : 720 пикселей
Высота : 336 пикселей
Соотношение сторон : 2,143
Частота кадров : 25,000 кадров/сек
Цветовое пространство : YUV
Субдискретизация насыщенности : 4:2:0
Битовая глубина : 8 бит
Тип развёртки : Прогрессивная
Метод сжатия : С потерями
Бит/(Пиксели*Кадры) : 0.270
Размер потока : 1,34 Гбайт (93%)
Библиотека кодирования : XviD 1.2.1 (UTC 2008-12-04)
Аудио
Идентификатор : 1
Формат : MPEG Audio
Версия формата : Version 1
Профиль формата : Layer 3
Режим : Joint stereo
Расширение режима : MS Stereo
Идентификатор кодека : 55
Идентификатор кодека/Подсказка : MP3
Продолжительность : 1 ч. 51 м.
Вид битрейта : Постоянный
Битрейт : 128 Кбит/сек
Каналы : 2 канала
Частота : 48,0 КГц
Метод сжатия : С потерями
Размер потока : 102 Мбайт (7%)
Выравнивание : Соединение по промежуткам
Продолжительность промежутка : 42 мс. (1,05 видеокадр)
Время предзагрузки промежутка : 504 мс.
-
Скачать

Скачать торрент! Мелодия любви / Taraana (Дипак Бехри / Deepak Bahry) [1979, Индия, Мелодрама, DVDRip] VO

Как скачивать? · Что такое торрент? · Рейтинг и ограничения

Сайт не распространяет и не хранит электронные версии произведений, а лишь предоставляет доступ к создаваемому пользователями каталогу ссылок на торрент-файлы, которые содержат только списки хеш-сумм

[Профиль] [ЛС]
Показать сообщения:    
Ответить на тему

Текущее время: Сегодня 06:40

Часовой пояс: GMT + 4



Вы не можете начинать темы
Вы не можете отвечать на сообщения
Вы не можете редактировать свои сообщения
Вы не можете удалять свои сообщения
Вы не можете голосовать в опросах
Вы не можете прикреплять файлы к сообщениям
Вы не можете скачивать файлы