Светлячок и Росинка (Юрий Бутырин) [1978 г., мультфильм, сказка, DVDRip]

Ответить на тему
 
Автор Сообщение

user ®

Стаж: 7 лет 7 месяцев

Сообщений: 20008

Пост Пост: #1 от 20-Окт-2013 02:35

[Цитировать]

Светлячок и РосинкаСтрана: СССР
Жанр: мультфильм, сказка
Продолжительность: 00:09:20
Год выпуска: 1978
Выпущено: Беларусьфильм
Режиссёр: Юрий Бутырин
Русские субтитры: нетОписание:Добрый и красочный мультфильм по мотивам сказки Максима Танка.
В ночную пору, когда все обитатели леса видят сладкие сны, просыпается маленький Светлячок. Он выходит из дома и блуждает по тёмному лесу, зажигая вокруг себя огоньки, чтобы лесные зверята, которым не спится, могли ориентироваться в темноте и не заблудились. Светлячок искренне радуется далёким звёздам в ночном небе и с улыбкой наблюдает за ними, а порой и разговаривает с Луной и звёздами.
А когда приходит утро, усталый и сонный Светлячок отправляется к себе домой, задувая по пути зажжённые ранее огоньки, после чего укладывается спать до следующего вечера. Но однажды, уже собравшись лечь в постель, Светлячок заметил огонёк, который, как ему показалось, он забыл погасить. Прибежав на место, он с изумлением увидел, что в первых лучиках солнца сверкает вовсе не огонёк, а маленькая капелька росы. В этой капельке он увидел и своё отображение. Удивлению Светлячка предела не было – он тут же забрал сверкающую росинку к себе домой, но там, увы, она светиться перестала… Как же удалось Светлячку подружиться со своей необычной гостьей?
В мультфильме звучит песня «Светлячок и Росинка».

Режиссёр и команда

Режиссёр Юрий Бутырин
сценарист: Юрий Бутырин
художник-постановщик: Вячеслав Тарасов
аниматоры: С. Иванов, Валерий Козлов, Жанна Корякина, Р. Домбровская, А. Горулев, Н. Прохорова, А. Стасюлевич
композитор: Леонид Захлевный
оператор: Юрий Мильтнер
звукооператор: Сендэр Шухман
Песню исполняют: Регина Домбровская, С. Иванов
Качество: DVDRip
Формат: AVI
Видео: 720x544 (1.32:1), 25 fps, XviD build 64 ~2353 kbps avg, 0.24 bit/pixel
Аудио: 48 kHz, AC3 Dolby Digital, 2/0 (L,R) ch, ~192 kbps
Субтитры: отсутствуют

Подробные технические данные

ОбщееПолное имя : D:\Мульты\Svetl'achok_i_rosinka.aviФормат : AVIФормат/Информация : Audio Video InterleaveРазмер файла : 171 МбайтПродолжительность : 9 м. 20 с.Общий поток : 2555 Кбит/секПрограмма кодирования : VirtualDubMod 1.5.10.2 (build 2540/release)Библиотека кодирования : VirtualDubMod build 2540/release
ВидеоИдентификатор : 0Формат : MPEG-4 VisualПрофиль формата : Advanced Simple@L5Параметр BVOP формата : 2Параметр QPel формата : НетПараметр GMC формата : Без точки переходаПараметр матрицы формата : ВыборочнаяИдентификатор кодека : XVIDИдентификатор кодека/Подсказка : XviDПродолжительность : 9 м. 20 с.Битрейт : 2353 Кбит/секШирина : 720 пикселейВысота : 544 пикселяСоотношение сторон : 4:3Частота кадров : 25,000 кадров/секЦветовое пространство : YUVСубдискретизация насыщенности : 4:2:0Битовая глубина : 8 битТип развёртки : ПрогрессивнаяМетод сжатия : С потерямиБит/(Пиксели*Кадры) : 0.240Размер потока : 157 Мбайт (92%)Библиотека кодирования : XviD 64
АудиоИдентификатор : 1Формат : AC-3Формат/Информация : Audio Coding 3Расширение режима : CM (complete main)Идентификатор кодека : 2000Продолжительность : 9 м. 20 с.Вид битрейта : ПостоянныйБитрейт : 192 Кбит/секКаналы : 2 каналаРасположение каналов : Front: L RЧастота : 48,0 КГцБитовая глубина : 16 битМетод сжатия : С потерямиРазмер потока : 12,8 Мбайт (8%)Выравнивание : Разделение по промежуткамПродолжительность промежутка : 40 мс. (1,00 видеокадр)Время предзагрузки промежутка : 500 мс.
Subtitles: Not Present

Скриншоты

Скачать

Скачать торрент!

Как скачивать? · Что такое торрент? · Рейтинг и ограничения

Сайт не распространяет и не хранит электронные версии произведений, а лишь предоставляет доступ к создаваемому пользователями каталогу ссылок на торрент-файлы, которые содержат только списки хеш-сумм

[Профиль] [ЛС]
Показать сообщения:    
Ответить на тему

Текущее время: Сегодня 03:14

Часовой пояс: GMT + 4



Вы не можете начинать темы
Вы не можете отвечать на сообщения
Вы не можете редактировать свои сообщения
Вы не можете удалять свои сообщения
Вы не можете голосовать в опросах
Вы не можете прикреплять файлы к сообщениям
Вы не можете скачивать файлы