Родные люди / Apne (Анил Шарма / Anil Sharma) [2007, Индия, Драма, спорт, DVDRip] MVO

Ответить на тему
 
Автор Сообщение

user ®

Стаж: 12 лет

Сообщений: 15124

Пост Пост: #1 от 20-Окт-2013 02:35

[Цитировать]

Родные люди / Apne
-Страна: Индия
Жанр: Драма, спорт
Год выпуска: 2007
Продолжительность: 02:46:46-Язык: Хинди
Перевод: Профессиональный (многоголосый, закадровый)
Cубтитры: Нет-Режиссер: Анил Шарма / Anil Sharma-В ролях: Дхармендра, Санни Деол, Бобби Деол, Киррон Кхер, Шилпа Шетти, Катрина Каиф-Описание: "Родные люди" - фильм с очень символичным названием, и не только потому, что в нем снялись Дхармендра и двое его сыновей - Санни и Бобби, но и потому, что всю семью Деолов считают близкими и родными людьми не только в Пенджабе, откуда они родом, но и во всей Индии. Сценарий для фильма, в котором они могли бы сняться все вместе, Деолы искали очень много лет. И "Родные люди" оказался действительно беспроигрышным вариантом - фильм, рассказывающий драматическую и очень эмоциональную историю отца и его сыновей, стал одним из самых громких хитов 2007 года.-- --Качество видео: DVDRip
Исходник: DVD9 R1
Формат видео: AVI-Видео: XVID, 720x320, 23.976 fps, 1572 Kbps
Аудио: АС3, 48 kHz, 2.0 stereo, 192 Kbps--Риппер, синхронизация звука: soso4eg-Спасибо agjind за DVD9 без перевода =)-- -
-

Скриншот с названием


-

Скриншоты


-

MI

Общее
Полное имя : C:\INDIYA\Rodnye.Lyudi.2007.DVDRip.XviD-soso4eg.avi
Формат : AVI
Формат/Информация : Audio Video Interleave
Профиль формата : OpenDML
Размер файла : 2,07 Гбайт
Продолжительность : 2 ч. 46 м.
Общий поток : 1776 Кбит/сек
Программа кодирования : VirtualDubMod 1.5.10.3 | www.virtualdub-fr.org || (build 2550/release)
Видео
Идентификатор : 0
Формат : MPEG-4 Visual
Профиль формата : Advanced Simple@L5
Параметр BVOP формата : 2
Параметр QPel формата : Нет
Параметр GMC формата : Без точки перехода
Параметр матрицы формата : Default (H.263)
Идентификатор кодека : XVID
Идентификатор кодека/Подсказка : XviD
Продолжительность : 2 ч. 46 м.
Битрейт : 1572 Кбит/сек
Ширина : 720 пикселей
Высота : 320 пикселей
Соотношение сторон : 2,25:1
Частота кадров : 23,976 кадра/сек
Цветовое пространство : YUV
Субдискретизация насыщенности : 4:2:0
Битовая глубина : 8 бит
Тип развёртки : Прогрессивная
Метод сжатия : С потерями
Бит/(Пиксели*Кадры) : 0.284
Размер потока : 1,83 Гбайт (88%)
Библиотека кодирования : XviD 1.2.1 (UTC 2008-12-04)
Аудио
Идентификатор : 1
Формат : AC-3
Формат/Информация : Audio Coding 3
Расширение режима : CM (complete main)
Параметр Endianness формата : Big
Идентификатор кодека : 2000
Продолжительность : 2 ч. 46 м.
Вид битрейта : Постоянный
Битрейт : 192 Кбит/сек
Каналы : 2 канала
Расположение каналов : Front: L R
Частота : 48,0 КГц
Битовая глубина : 16 бит
Метод сжатия : С потерями
Размер потока : 229 Мбайт (11%)
Выравнивание : Разделение по промежуткам
Продолжительность промежутка : 42 мс. (1,00 видеокадр)
Время предзагрузки промежутка : 500 мс.

-
-
Скачать

Скачать торрент! Родные люди / Apne (Анил Шарма / Anil Sharma) [2007, Индия, Драма, спорт, DVDRip] MVO

Как скачивать? · Что такое торрент? · Рейтинг и ограничения

Сайт не распространяет и не хранит электронные версии произведений, а лишь предоставляет доступ к создаваемому пользователями каталогу ссылок на торрент-файлы, которые содержат только списки хеш-сумм

[Профиль] [ЛС]
Показать сообщения:    
Ответить на тему

Текущее время: Сегодня 21:10

Часовой пояс: GMT + 4



Вы не можете начинать темы
Вы не можете отвечать на сообщения
Вы не можете редактировать свои сообщения
Вы не можете удалять свои сообщения
Вы не можете голосовать в опросах
Вы не можете прикреплять файлы к сообщениям
Вы не можете скачивать файлы